+100


Топ за 24 часа
 
 

[Цитировать]

- Шелест (2016) HDTVRip (сезон 1, серий 1-16 из 16) -Производство: Россия / Централ Партнершип Продакшн,"НТВ-Кино" по заказу НТВ
Жанр: боевик, детектив, криминал
Режиссер: Дмитрий Коробкин
Актеры: Владимир Зайцев, Сергей Чирков, Юрий Архангельский, Константин Федоров, Ольга Абрамова, Олег Тактаров, Елена Корикова, Юрий Ваксман, Юлия Мельникова, Александр Ивашкевич и др.
Описание:
Подполковник уголовного розыска Павел Шелестов или просто Шелест возглавляет отдел по раскрытию особо тяжких преступлений. В его ведении громкие дела об ограблении банков, инкассаторов, заказные убийства и похищения людей. Павел следует принципу Глеба Жеглова «Вор должен сидеть в тюрьме» и иногда действует незаконно, чтобы найти и обезвредить преступника.Когда в отдел Шелестова приходит молодой оперативник Денис Макеев (Сергей Чирков), в коллективе назревает конфликт. Современный Шарапов-Макеев выступает за правду и справедливость, что противоречит правилам работы Шелеста. Подполковник пытается наладить работу своих сотрудников, но его ждёт новый удар. В ресторане во время праздника начинается перестрелка. Неизвестные убивают шестерых сотрудников УгРо, и отдел собственной безопасности пытается выставить виновником трагедии Шелеста.

Возраст: 16+ (зрителям, достигшим 16 лет)
Дата российской премьеры: 12 декабря 2016
Продолжительность: ~ 00:43:00 серия
Качество видео: HDTVRip
Видео: Xvid, 720x400 (16:9), ~1607 Kbps
Аудио: AC3, 2 ch, 192 Kbps, CBR

MediaInfo

Общее
Полное имя : D:\Мои фильмы\Shelest_1-16iz16_2016_XviD_HDTVRip\Shelest_01_HDTVRip.avi
Формат : AVI
Формат/Информация : Audio Video Interleave
Размер файла : 555 Мбайт
Продолжительность : 42 м. 55 с.
Общий поток : 1808 Кбит/сек
Программа кодирования : VirtualDubMod 1.5.10.3 www.virtualdub-fr.org || (build 2550/release)
Библиотека кодирования : VirtualDub build 35491/release
Видео
Идентификатор : 0
Формат : MPEG-4 Visual
Профиль формата : Advanced Simple@L5
Параметр BVOP формата : 2
Параметр QPel формата : Нет
Параметр GMC формата : Без точки перехода
Параметр матрицы формата : Default (H.263)
Идентификатор кодека : XVID
Идентификатор кодека/Подсказка : XviD
Продолжительность : 42 м. 55 с.
Битрейт : 1607 Кбит/сек
Ширина : 720 пикселей
Высота : 400 пикселей
Соотношение сторон : 16:9
Частота кадров : 25,000 кадров/сек
Цветовое пространство : YUV
Субдискретизация насыщенности : 4:2:0
Битовая глубина : 8 бит
Тип развёртки : Прогрессивная
Метод сжатия : С потерями
Бит/(Пиксели*Кадры) : 0.223
Размер потока : 493 Мбайт (89%)
Библиотека кодирования : XviD 67
Аудио
Идентификатор : 1
Формат : AC-3
Формат/Информация : Audio Coding 3
Расширение режима : CM (complete main)
Параметр Endianness формата : Big
Идентификатор кодека : 2000
Продолжительность : 42 м. 55 с.
Вид битрейта : Постоянный
Битрейт : 192 Кбит/сек
Каналы : 2 канала
Расположение каналов : Front: L R
Частота : 48,0 КГц
Частота кадров : 31,250 кадров/сек (1536 spf)
Битовая глубина : 16 бит
Метод сжатия : С потерями
Размер потока : 58,9 Мбайт (11%)
Выравнивание : Соединение по промежуткам
Продолжительность промежутка : 40 мс. (1,00 видеокадр)
Время предзагрузки промежутка : 512 мс.
Скриншоты:




Показать сообщения:    

Текущее время: 25-Фев 01:45

Часовой пояс: UTC + 11


Вы не можете начинать темы
Вы не можете отвечать на сообщения
Вы не можете редактировать свои сообщения
Вы не можете удалять свои сообщения
Вы не можете голосовать в опросах
Вы не можете прикреплять файлы к сообщениям
Вы не можете скачивать файлы

Сайт не предоставляет электронные версии произведений, а занимается лишь коллекционированием и каталогизацией ссылок, присылаемых и публикуемых на форуме нашими читателями. Если вы являетесь правообладателем какого-либо представленного материала и не желаете, чтобы ссылка на него находилась в нашем каталоге, свяжитесь с нами, и мы незамедлительно удалим ее. Файлы для обмена на трекере предоставлены пользователями сайта, и администрация не несет ответственности за их содержание. Просьба не заливать файлы, защищенные авторскими правами, а также файлы нелегального содержания!