+100


 

[Цитировать]

- Кубо. Легенда о самурае / Kubo and the Two Strіngs (2016) BDRip [H.264/1080p]-Производство: США, Laika Entertainment
Жанр: Фэнтези, Приключения, Семейный
Режиссер: Трэвис Найт
Актеры: Арт Паркинсон, Шарлиз Терон, Рэйф Файнс, Джордж Такей, Кэри-Хироюки Тагава, Бренда Ваккаро, Руни Мара, Мэттью МакКонахи, Мейрик Мерфи, Мина Нодзи
Описание:
Юный музыкант Кубо наслаждался безмятежной жизнью на берегу океана. В их небольшом селении никогда не случалось ничего необычного, и никто не ждал перемен. Но они наступили, когда в жизнь юноши и его матери ворвался мятежный дух, жаждущий отмщения. Заново узнавая историю своего происхождения, Кубо открывает в себе новые, ранее неизведанные способности и понимает, что он, в сущности, очень похож на отца, которого никогда не видел — легендарного воина, прославленного самурая, павшего в битве со злом.

Возраст: 6+ (зрителям, достигшим 6 лет)
Рейтинг MPAA: G (нет возрастных ограничений)
Продолжительность: 01:41:36
Качество видео: BDRip
Перевод: Дублированный
Язык субтитров: Русский, английский
Вид субтитров: Вшитые отключаемые
Видео: AVC/H.264, 1920х804, ~7036 Kbps
Аудио #1: AC3, 6 ch, 384 Kbps | Русский
Аудио #2: AC3, 6 ch, 448 Kbps | Английский

MediaInfo

Формат : Matroska
Версия формата : Version 2
Размер файла : 5,58 Гбайт
Продолжительность : 1 ч. 41 м.
Общий поток : 7867 Кбит/сек
Название фильма : ~V ad~
Дата кодирования : UTC 2016-12-15 12:52:11
Программа кодирования : mkvmerge v6.5.0 ('Isn't she lovely') built on Oct 20 2013 12:50:05
Библиотека кодирования : libebml v1.3.0 + libmatroska v1.4.1
Attachments : poster.jpg
Видео
Идентификатор : 1
Формат : AVC
Формат/Информация : Advanced Video Codec
Профиль формата : High@L4.1
Параметр CABAC формата : Да
Параметр ReFrames формата : 5 кадров
Идентификатор кодека : V_MPEG4/ISO/AVC
Продолжительность : 1 ч. 41 м.
Битрейт : 7036 Кбит/сек
Ширина : 1920 пикселей
Высота : 804 пикселя
Соотношение сторон : 2,40:1
Режим частоты кадров : Постоянный
Частота кадров : 23,976 (24000/1001) кадра/сек
Цветовое пространство : YUV
Субдискретизация насыщенности : 4:2:0
Битовая глубина : 8 бит
Тип развёртки : Прогрессивная
Бит/(Пиксели*Кадры) : 0.190
Размер потока : 4,88 Гбайт (87%)
Заголовок : ~V~
Библиотека кодирования : x264 core 148 r2721 72d53ab
Настройки программы : cabac=1 / ref=5 / deblock=1:-2:-3 / analyse=0x3:0x133 / me=umh / subme=11 / psy=1 / psy_rd=1.00:0.00 / mixed_ref=1 / me_range=48 / chroma_me=1 / trellis=2 / 8x8dct=1 / cqm=0 / deadzone=21,11 / fast_pskip=0 / chroma_qp_offset=-2 / threads=12 / lookahead_threads=1 / sliced_threads=0 / nr=0 / decimate=0 / interlaced=0 / bluray_compat=0 / constrained_intra=0 / bframes=10 / b_pyramid=2 / b_adapt=2 / b_bias=0 / direct=3 / weightb=1 / open_gop=0 / weightp=2 / keyint=240 / keyint_min=23 / scenecut=40 / intra_refresh=0 / rc=2pass / mbtree=0 / bitrate=7036 / ratetol=1.0 / qcomp=0.60 / qpmin=0 / qpmax=69 / qpstep=4 / cplxblur=20.0 / qblur=0.5 / ip_ratio=1.26 / pb_ratio=1.30 / aq=3:0.90
Язык : English
Default : Да
Forced : Нет
Аудио #1
Идентификатор : 4
Формат : AC-3
Формат/Информация : Audio Coding 3
Расширение режима : CM (complete main)
Параметр Endianness формата : Big
Идентификатор кодека : A_AC3
Продолжительность : 1 ч. 41 м.
Вид битрейта : Постоянный
Битрейт : 384 Кбит/сек
Каналы : 6 каналов
Расположение каналов : Front: L C R, Side: L R, LFE
Частота : 48,0 КГц
Частота кадров : 31,250 кадров/сек (1536 spf)
Метод сжатия : С потерями
Размер потока : 279 Мбайт (5%)
Язык : Russian
Default : Да
Forced : Да
Аудио #2
Идентификатор : 5
Формат : AC-3
Формат/Информация : Audio Coding 3
Расширение режима : CM (complete main)
Параметр Endianness формата : Big
Идентификатор кодека : A_AC3
Продолжительность : 1 ч. 41 м.
Вид битрейта : Постоянный
Битрейт : 448 Кбит/сек
Каналы : 6 каналов
Расположение каналов : Front: L C R, Side: L R, LFE
Частота : 48,0 КГц
Частота кадров : 31,250 кадров/сек (1536 spf)
Метод сжатия : С потерями
Размер потока : 326 Мбайт (6%)
Язык : English
Default : Нет
Forced : Нет
Текст #1
Идентификатор : 2
Формат : UTF-8
Идентификатор кодека : S_TEXT/UTF8
Идентификатор кодека/Информация : UTF-8 Plain Text
Язык : Russian
Default : Нет
Forced : Нет
Текст #2
Идентификатор : 3
Формат : UTF-8
Идентификатор кодека : S_TEXT/UTF8
Идентификатор кодека/Информация : UTF-8 Plain Text
Язык : English
Default : Нет
Forced : Нет
Меню
00:00:00.000 : en:Chapter 01
00:02:56.509 : en:Chapter 02
00:07:10.638 : en:Chapter 03
00:12:08.894 : en:Chapter 04
00:17:19.955 : en:Chapter 05
00:21:40.799 : en:Chapter 06
00:25:58.390 : en:Chapter 07
00:32:11.554 : en:Chapter 08
00:36:58.049 : en:Chapter 09
00:42:33.509 : en:Chapter 10
00:47:48.657 : en:Chapter 11
00:50:47.669 : en:Chapter 12
00:56:48.947 : en:Chapter 13
01:02:56.314 : en:Chapter 14
01:08:28.270 : en:Chapter 15
01:12:40.606 : en:Chapter 16
01:20:00.629 : en:Chapter 17
01:24:22.265 : en:Chapter 18
01:28:46.070 : en:Chapter 19
01:32:49.564 : en:Chapter 20

Log x264:

x264 [info]: frame I:1074 Avg QP:16.56 size:185362
x264 [info]: frame P:31755 Avg QP:17.45 size: 79452
x264 [info]: frame B:113335 Avg QP:19.29 size: 23407
Скриншоты:




Показать сообщения:    

Текущее время: 21-Окт 21:25

Часовой пояс: UTC + 11


Вы не можете начинать темы
Вы не можете отвечать на сообщения
Вы не можете редактировать свои сообщения
Вы не можете удалять свои сообщения
Вы не можете голосовать в опросах
Вы не можете прикреплять файлы к сообщениям
Вы не можете скачивать файлы

Сайт не предоставляет электронные версии произведений, а занимается лишь коллекционированием и каталогизацией ссылок, присылаемых и публикуемых на форуме нашими читателями. Если вы являетесь правообладателем какого-либо представленного материала и не желаете, чтобы ссылка на него находилась в нашем каталоге, свяжитесь с нами, и мы незамедлительно удалим ее. Файлы для обмена на трекере предоставлены пользователями сайта, и администрация не несет ответственности за их содержание. Просьба не заливать файлы, защищенные авторскими правами, а также файлы нелегального содержания!