+100


 

[Цитировать]

- Супергерои / Bling (2016) BDRip [H.264/720p] -Производство: США, Корея Южная
Жанр: Приключения
Режиссер: Ли Гён-хо, Ли Вон-джэ
Описание:
Когда на город готовится нападение величайшего в истории злодея, когда предложение руки и сердца закончилось грандиозным провалом, а кольцо для любимой девушки потеряно… Только команда Супергероев может спасти ситуацию! Лучшие друзья из парка аттракционов готовятся вступить в битву с реальным злодеем! И они сделают все, чтобы спасти город и помочь своему другу спасти любовь!

Рейтинг MPAA: PG (рекомендуется присутствие родителей)
Дата мировой премьеры: 3 марта 2016
Дата российской премьеры: 17 ноября 2016, «Наше Кино»
Продолжительность: 01:21:16
Качество видео: BDRip
Перевод: Дублированный
Язык субтитров: Датские, финские, норвежские, шведские
Вид субтитров: Вшитые отключаемые
Видео: AVC/H.264, 1280x720, ~3626 kbps
Аудио 1: AC-3, 6 ch, 384 kbps, CBR | Русский
Аудио 2: AC-3, 6 ch, 640 kbps, CBR | Английский

MediaInfo

Общее
Уникальный идентификатор : 205007439547699453720225897365522377913 (0x9A3AFF256B11D32F948C4DA2D1086CB9)
Полное имя : D:\FILMЬl\1111\Supergeroi.2016.mkv
Формат : Matroska
Версия формата : Version 2
Размер файла : 2,64 Гбайт
Продолжительность : 1 ч. 21 м.
Общий поток : 4652 Кбит/сек
Название фильма : Bling.2016.720p.Bluray.DD5.1.x264-OmertaHD
Дата кодирования : UTC 2016-12-14 20:06:52
Программа кодирования : mkvmerge v8.3.0 ('Over the Horizon') 64bit
Библиотека кодирования : libebml v1.3.1 + libmatroska v1.4.2
Видео
Идентификатор : 1
Формат : AVC
Формат/Информация : Advanced Video Codec
Профиль формата : High@L4.1
Параметр CABAC формата : Да
Параметр ReFrames формата : 9 кадров
Идентификатор кодека : V_MPEG4/ISO/AVC
Продолжительность : 1 ч. 21 м.
Битрейт : 3626 Кбит/сек
Ширина : 1280 пикселей
Высота : 720 пикселей
Соотношение сторон : 16:9
Режим частоты кадров : Постоянный
Частота кадров : 24,000 кадра/сек
Цветовое пространство : YUV
Субдискретизация насыщенности : 4:2:0
Битовая глубина : 8 бит
Тип развёртки : Прогрессивная
Бит/(Пиксели*Кадры) : 0.164
Размер потока : 2,06 Гбайт (78%)
Библиотека кодирования : x264 core 148 r2692kMod 64f4e24
Настройки программы : cabac=1 / ref=9 / deblock=1:-3:-3 / analyse=0x3:0x133 / me=umh / subme=10 / psy=1 / fade_compensate=0.00 / psy_rd=0.80:0.00 / mixed_ref=1 / me_range=32 / chroma_me=1 / trellis=2 / 8x8dct=1 / cqm=0 / deadzone=21,11 / fast_pskip=1 / chroma_qp_offset=-2 / threads=6 / lookahead_threads=1 / sliced_threads=0 / nr=0 / decimate=1 / interlaced=0 / bluray_compat=0 / constrained_intra=0 / fgo=0 / bframes=7 / b_pyramid=2 / b_adapt=2 / b_bias=0 / direct=3 / weightb=1 / open_gop=0 / weightp=2 / keyint=250 / keyint_min=24 / scenecut=40 / intra_refresh=0 / rc=crf / mbtree=0 / crf=16.3000 / qcomp=0.28 / qpmin=0 / qpmax=69 / qpstep=4 / ip_ratio=1.28 / pb_ratio=1.20 / aq=3:0.39
Язык : English
Default : Да
Forced : Нет
Аудио #1
Идентификатор : 2
Формат : AC-3
Формат/Информация : Audio Coding 3
Расширение режима : CM (complete main)
Параметр Endianness формата : Big
Идентификатор кодека : A_AC3
Продолжительность : 1 ч. 21 м.
Вид битрейта : Постоянный
Битрейт : 384 Кбит/сек
Каналы : 6 каналов
Расположение каналов : Front: L C R, Side: L R, LFE
Частота : 48,0 КГц
Частота кадров : 31,250 кадров/сек (1536 spf)
Битовая глубина : 16 бит
Метод сжатия : С потерями
Задержка видео : 47 мс.
Размер потока : 223 Мбайт (8%)
Язык : Russian
Default : Да
Forced : Да
Аудио #2
Идентификатор : 3
Формат : AC-3
Формат/Информация : Audio Coding 3
Расширение режима : CM (complete main)
Параметр Endianness формата : Big
Идентификатор кодека : A_AC3
Продолжительность : 1 ч. 21 м.
Вид битрейта : Постоянный
Битрейт : 640 Кбит/сек
Каналы : 6 каналов
Расположение каналов : Front: L C R, Side: L R, LFE
Частота : 48,0 КГц
Частота кадров : 31,250 кадров/сек (1536 spf)
Битовая глубина : 16 бит
Метод сжатия : С потерями
Размер потока : 372 Мбайт (14%)
Язык : English
Default : Нет
Forced : Нет
Текст #1
Идентификатор : 4
Формат : UTF-8
Идентификатор кодека : S_TEXT/UTF8
Идентификатор кодека/Информация : UTF-8 Plain Text
Продолжительность : 1 ч. 15 м.
Битрейт : 43 бит/сек
Count of elements : 657
Размер потока : 24,3 Кбайт (0%)
Язык : Danish
Default : Нет
Forced : Нет
Текст #2
Идентификатор : 5
Формат : UTF-8
Идентификатор кодека : S_TEXT/UTF8
Идентификатор кодека/Информация : UTF-8 Plain Text
Продолжительность : 1 ч. 15 м.
Битрейт : 38 бит/сек
Count of elements : 657
Размер потока : 21,4 Кбайт (0%)
Язык : Finnish
Default : Нет
Forced : Нет
Текст #3
Идентификатор : 6
Формат : UTF-8
Идентификатор кодека : S_TEXT/UTF8
Идентификатор кодека/Информация : UTF-8 Plain Text
Продолжительность : 1 ч. 15 м.
Битрейт : 43 бит/сек
Count of elements : 657
Размер потока : 23,9 Кбайт (0%)
Язык : Norwegian
Default : Нет
Forced : Нет
Текст #4
Идентификатор : 7
Формат : UTF-8
Идентификатор кодека : S_TEXT/UTF8
Идентификатор кодека/Информация : UTF-8 Plain Text
Продолжительность : 1 ч. 20 м.
Битрейт : 42 бит/сек
Count of elements : 658
Размер потока : 25,2 Кбайт (0%)
Язык : Swedish
Default : Нет
Forced : Нет




Показать сообщения:    

Текущее время: 19-Окт 00:09

Часовой пояс: UTC + 11


Вы не можете начинать темы
Вы не можете отвечать на сообщения
Вы не можете редактировать свои сообщения
Вы не можете удалять свои сообщения
Вы не можете голосовать в опросах
Вы не можете прикреплять файлы к сообщениям
Вы не можете скачивать файлы

Сайт не предоставляет электронные версии произведений, а занимается лишь коллекционированием и каталогизацией ссылок, присылаемых и публикуемых на форуме нашими читателями. Если вы являетесь правообладателем какого-либо представленного материала и не желаете, чтобы ссылка на него находилась в нашем каталоге, свяжитесь с нами, и мы незамедлительно удалим ее. Файлы для обмена на трекере предоставлены пользователями сайта, и администрация не несет ответственности за их содержание. Просьба не заливать файлы, защищенные авторскими правами, а также файлы нелегального содержания!