+100


Топ за 24 часа
 
 

[Цитировать]

-Случайных встреч не бывает (2016) WEB-DLRip (серии 1-4 из 4)-Производство: Украина / 1+1 Продакшен
Жанр: мелодрама
Режиссер: Виктория Мельникова
Актеры: Анна Кузина, Сергей Деревянко, Сергей Радченко, Мила Сивацкая, Сергей Калантай, Алла Мартынюк, Станислав Мельник и др.
Описание:
Главная героиня Елена — молодая, красивая успешная бизнес-вумен. Много лет назад она совершила ошибку, о которой теперь очень жалеет. Женщина не может иметь детей, но мечтает усыновить ребёнка. Её муж не поддерживает идею с усыновлением, и в семье часто происходят ссоры. Позже выясняется, что у супругов ещё очень много причин для разногласий и секретов друг от друга. Героев связывают не только супружеские отношения, но и семейный бизнес. В борьбе за счастье Елена переживает множество преград, разочарований и личных трагедий...

Дата мировой премьеры: 18 сентября 2016
Продолжительность: ~ 00:45:00 серия
Качество видео: WEB-DLRip
Перевод: Не требуется (язык русский)
Видео: XviD, 720x400 (16:9), ~1535 Kbps
Аудио: AC-3, 48.0 KHz, 2 ch, 192 Kbps, CBR

MediaInfo

Общее
Полное имя : C:\NNM\Случайных встреч не бывает\Sluchajnyh vstrechj ne byvaet 2016 WEB-DLRip\Vstrechi 01.avi
Формат : AVI
Формат/Информация : Audio Video Interleave
Размер файла : 560 Мбайт
Продолжительность : 45 м.
Общий поток : 1737 Кбит/сек
Программа кодирования : VirtualDubMod 1.5.10.3 | www.virtualdub-fr.org || (build 2550/release)
Библиотека кодирования : VirtualDubMod build 2550/release
Видео
Идентификатор : 0
Формат : MPEG-4 Visual
Профиль формата : Advanced Simple@L5
Параметр BVOP формата : 1
Параметр QPel формата : Нет
Параметр GMC формата : Без точки перехода
Параметр матрицы формата : Выборочная
Идентификатор кодека : XVID
Идентификатор кодека/Подсказка : XviD
Продолжительность : 45 м.
Битрейт : 1535 Кбит/сек
Ширина : 720 пикселей
Высота : 400 пикселей
Соотношение сторон : 16:9
Частота кадров : 25,000 кадров/сек
Цветовое пространство : YUV
Субдискретизация насыщенности : 4:2:0
Битовая глубина : 8 бит
Тип развёртки : Прогрессивная
Метод сжатия : С потерями
Бит/(Пиксели*Кадры) : 0.213
Размер потока : 495 Мбайт (88%)
Библиотека кодирования : XviD 73
Аудио
Идентификатор : 1
Формат : AC-3
Формат/Информация : Audio Coding 3
Расширение режима : CM (complete main)
Параметр Endianness формата : Big
Идентификатор кодека : 2000
Продолжительность : 45 м.
Вид битрейта : Постоянный
Битрейт : 192 Кбит/сек
Каналы : 2 канала
Расположение каналов : Front: L R
Частота : 48,0 КГц
Частота кадров : 31,250 кадров/сек (1536 spf)
Метод сжатия : С потерями
Размер потока : 61,9 Мбайт (11%)
Выравнивание : Разделение по промежуткам
Продолжительность промежутка : 40 мс. (1,00 видеокадр)
Время предзагрузки промежутка : 500 мс.
Скриншоты:




Показать сообщения:    

Текущее время: 25-Фев 01:45

Часовой пояс: UTC + 11


Вы не можете начинать темы
Вы не можете отвечать на сообщения
Вы не можете редактировать свои сообщения
Вы не можете удалять свои сообщения
Вы не можете голосовать в опросах
Вы не можете прикреплять файлы к сообщениям
Вы не можете скачивать файлы

Сайт не предоставляет электронные версии произведений, а занимается лишь коллекционированием и каталогизацией ссылок, присылаемых и публикуемых на форуме нашими читателями. Если вы являетесь правообладателем какого-либо представленного материала и не желаете, чтобы ссылка на него находилась в нашем каталоге, свяжитесь с нами, и мы незамедлительно удалим ее. Файлы для обмена на трекере предоставлены пользователями сайта, и администрация не несет ответственности за их содержание. Просьба не заливать файлы, защищенные авторскими правами, а также файлы нелегального содержания!