+100


Топ за 24 часа
 
 

[Цитировать]

-Гроза над Тихоречьем (2016) WEB-DLRip (серии 1-4 из 4)-Производство: Украина / 1+1 Продакшен
Жанр: мелодрама
Режиссер: Бата Недич
Актеры: Андрей Саминин, Людмила Загорская, Алексей Череватенко, Дарья Трегубова, Андрей Мостренко, Алла Мартынюк, Елизавета Зайцева, Фёдор Гуринец и др.
Описание:
Лишившемуся работы в одном из НИИ научному сотруднику Павлу Соколову выпадает возможность неплохо подзаработать — по поручению приятеля-бизнесмена он отправляется в сельскую глубинку, где должен уговорить Марию Лошкареву продать её молочную ферму под бизнес-проект городских воротил. Павел, сам того не замечая, влюбляется в Марию. Теперь ему предстоит сделать нелегкий выбор: не выполнить поручение друга или пойти против совести.

Дата мировой премьеры:11 сентября 2016
Продолжительность: ~ 00:45:00 серия
Качество видео: WEB-DLRip
Перевод: Не требуется (язык русский)
Видео: XviD, 720x400 (16:9), ~1626 Kbps
Аудио: AC-3, 48.0 KHz, 2 ch, 192 Kbps, CBR

MediaInfo

Общее
Полное имя : C:\NNM\Гроза над Тихоречьем\Groza nad Tihorechjem 2016 WEB-DLRip\Groza 02.avi
Формат : AVI
Формат/Информация : Audio Video Interleave
Размер файла : 600 Мбайт
Продолжительность : 45 м.
Общий поток : 1828 Кбит/сек
Программа кодирования : VirtualDubMod 1.5.10.3 | www.virtualdub-fr.org || (build 2550/release)
Библиотека кодирования : VirtualDubMod build 2550/release
Видео
Идентификатор : 0
Формат : MPEG-4 Visual
Профиль формата : Advanced Simple@L5
Параметр BVOP формата : 1
Параметр QPel формата : Нет
Параметр GMC формата : Без точки перехода
Параметр матрицы формата : Выборочная
Идентификатор кодека : XVID
Идентификатор кодека/Подсказка : XviD
Продолжительность : 45 м.
Битрейт : 1626 Кбит/сек
Ширина : 720 пикселей
Высота : 400 пикселей
Соотношение сторон : 16:9
Частота кадров : 25,000 кадров/сек
Цветовое пространство : YUV
Субдискретизация насыщенности : 4:2:0
Битовая глубина : 8 бит
Тип развёртки : Прогрессивная
Метод сжатия : С потерями
Бит/(Пиксели*Кадры) : 0.226
Размер потока : 534 Мбайт (89%)
Библиотека кодирования : XviD 73
Аудио
Идентификатор : 1
Формат : AC-3
Формат/Информация : Audio Coding 3
Расширение режима : CM (complete main)
Параметр Endianness формата : Big
Идентификатор кодека : 2000
Продолжительность : 45 м.
Вид битрейта : Постоянный
Битрейт : 192 Кбит/сек
Каналы : 2 канала
Расположение каналов : Front: L R
Частота : 48,0 КГц
Частота кадров : 31,250 кадров/сек (1536 spf)
Метод сжатия : С потерями
Размер потока : 63,0 Мбайт (11%)
Выравнивание : Разделение по промежуткам
Продолжительность промежутка : 40 мс. (1,00 видеокадр)
Время предзагрузки промежутка : 500 мс.
Скриншоты:




Показать сообщения:    

Текущее время: 25-Фев 01:48

Часовой пояс: UTC + 11


Вы не можете начинать темы
Вы не можете отвечать на сообщения
Вы не можете редактировать свои сообщения
Вы не можете удалять свои сообщения
Вы не можете голосовать в опросах
Вы не можете прикреплять файлы к сообщениям
Вы не можете скачивать файлы

Сайт не предоставляет электронные версии произведений, а занимается лишь коллекционированием и каталогизацией ссылок, присылаемых и публикуемых на форуме нашими читателями. Если вы являетесь правообладателем какого-либо представленного материала и не желаете, чтобы ссылка на него находилась в нашем каталоге, свяжитесь с нами, и мы незамедлительно удалим ее. Файлы для обмена на трекере предоставлены пользователями сайта, и администрация не несет ответственности за их содержание. Просьба не заливать файлы, защищенные авторскими правами, а также файлы нелегального содержания!