+100


 

[Цитировать]

- Крылья (2016) SATRip (серии 1-4 из 4) -Производство: Россия | Кинокомпания «Марс Медиа» по заказу телеканала ТВЦ
Жанр: драма
Режиссер: Александр Аравин
Актеры: Анна Банщикова, Илья Древнов, Алексей Медведев, Анастасия Тимушкова, Екатерина Кульчицкая, Татьяна Ташкова и др.
Описание:
Людмиле 38 лет. Сорокалетие не за горами, и оглядываясь на свою жизнь, она понимает – вспомнить ей особо нечего. Единственные проблески в череде серых будней, состоящих из случайных подработок в качестве медсестры, ухода за больной матерью и воспитанием дочери – это редкие визиты домой мужа Николая, который работает дальнобойщиком. Люда, привыкшая находить плюсы во всех ситуациях, вполне довольна своей судьбой, хотя порой тоскует по яркой молодости и несбывшейся мечте.
Продолжительность: ~00:45:00 серия
Качество видео: SATRip
Видео: Xvid, 720x400 (16:9), ~1800 kbps
Аудио: MP3, 2 ch, 128 kbps

MediaInfo

Формат : AVI
Формат/Информация : Audio Video Interleave
Размер файла : 611 Мбайт
Продолжительность : 44 м. 7 с.
Общий поток : 1938 Кбит/сек
Программа кодирования : VirtualDubMod 1.5.10.3 | www.virtualdub-fr.org || (build 2550/release)
Библиотека кодирования : VirtualDubMod build 2550/release
Видео
Идентификатор : 0
Формат : MPEG-4 Visual
Профиль формата : Advanced Simple@L5
Параметр BVOP формата : 2
Параметр QPel формата : Нет
Параметр GMC формата : Без точки перехода
Параметр матрицы формата : Default (H.263)
Идентификатор кодека : XVID
Идентификатор кодека/Подсказка : XviD
Продолжительность : 44 м. 7 с.
Битрейт : 1800 Кбит/сек
Ширина : 720 пикселей
Высота : 400 пикселей
Соотношение сторон : 16:9
Частота кадров : 25,000 кадров/сек
Цветовое пространство : YUV
Субдискретизация насыщенности : 4:2:0
Битовая глубина : 8 бит
Тип развёртки : Прогрессивная
Метод сжатия : С потерями
Бит/(Пиксели*Кадры) : 0.250
Размер потока : 568 Мбайт (93%)
Библиотека кодирования : XviD 1.2.1 (UTC 2008-12-04)
Аудио
Идентификатор : 1
Формат : MPEG Audio
Версия формата : Version 1
Профиль формата : Layer 3
Идентификатор кодека : 55
Идентификатор кодека/Подсказка : MP3
Продолжительность : 44 м. 7 с.
Вид битрейта : Постоянный
Битрейт : 128 Кбит/сек
Каналы : 2 канала
Частота : 48,0 КГц
Метод сжатия : С потерями
Размер потока : 40,4 Мбайт (7%)
Выравнивание : Соединение по промежуткам
Продолжительность промежутка : 40 мс. (1,00 видеокадр)
Время предзагрузки промежутка : 504 мс.
Библиотека кодирования : LAME3.99r
Настройки программы : -m s -V 4 -q 9 -lowpass 17 -b 128
Скриншоты:




Показать сообщения:    

Текущее время: 26-Июн 14:45

Часовой пояс: UTC + 11


Вы не можете начинать темы
Вы не можете отвечать на сообщения
Вы не можете редактировать свои сообщения
Вы не можете удалять свои сообщения
Вы не можете голосовать в опросах
Вы не можете прикреплять файлы к сообщениям
Вы не можете скачивать файлы

Сайт не предоставляет электронные версии произведений, а занимается лишь коллекционированием и каталогизацией ссылок, присылаемых и публикуемых на форуме нашими читателями. Если вы являетесь правообладателем какого-либо представленного материала и не желаете, чтобы ссылка на него находилась в нашем каталоге, свяжитесь с нами, и мы незамедлительно удалим ее. Файлы для обмена на трекере предоставлены пользователями сайта, и администрация не несет ответственности за их содержание. Просьба не заливать файлы, защищенные авторскими правами, а также файлы нелегального содержания!