+100


Топ за 24 часа
 
 

[Цитировать]

Тайны следствия (2012) WEBRip (сезон 12, серии 1-12 из 12) -Производство: Россия / "Форвард-фильм"
Жанр: Детектив, Криминал
Режиссер: Рената Грицкова
Актеры: Анна Ковальчук, Вячеслав Захаров, Игорь Николаев, Александр Новиков, Мирослав Малич, Игорь Григорьев, Дмитрий Поднозов, Ольга Павловец, Николай Смирнов, Александр Овчинников и др...
Описание:
Мария Швецова продолжает трудиться в районном следственном комитете под руководством Николая Филонова. Каждый день становится для неё настоящим испытанием, ведь ей приходится бороться не только и не столько с преступностью, сколько с косностью и откровенным саботажем реальной следственной работы со стороны руководства. К счастью, коллеги и друзья не оставляют Машу в трудную минуту. Новый следователь Колонкова, с которой Швецова уже успела подружиться, Кораблёв, вернувшийся на службу в полицию, и неизменный друг и учитель Ковин всегда помогут ей в любом самом сложном деле. Кроме того, дома её ждёт дружная семья, вновь пополнившаяся вернувшимся из Англии старшим сыном Швецовой Костиком...

Возраст: 12+ (зрителям, достигшим 12 лет)
Продолжительность: ~ 00:45:00 серия
Качество видео: WEBRip
Видео: Xvid, 720x400 (16:9), ~2170 Kbps
Аудио: AC3, 2 ch, 192 Kbps, CBR

MediaInfo

Общее
Полное имя : D:\Мои фильмы\Tajny_sledstvija_S12_1-12iz12_2012_XviD_WEBRip\1.Лишний.(1 сер.).avi
Формат : AVI
Формат/Информация : Audio Video Interleave
Размер файла : 745 Мбайт
Продолжительность : 43 м. 55 с.
Общий поток : 2372 Кбит/сек
Библиотека кодирования : VirtualDub build 35491/release
Видео
Идентификатор : 0
Формат : MPEG-4 Visual
Профиль формата : Advanced Simple@L5
Параметр BVOP формата : 2
Параметр QPel формата : Нет
Параметр GMC формата : Без точки перехода
Параметр матрицы формата : Default (H.263)
Идентификатор кодека : XVID
Идентификатор кодека/Подсказка : XviD
Продолжительность : 43 м. 55 с.
Битрейт : 2170 Кбит/сек
Ширина : 720 пикселей
Высота : 400 пикселей
Соотношение сторон : 16:9
Частота кадров : 25,000 кадров/сек
Цветовое пространство : YUV
Субдискретизация насыщенности : 4:2:0
Битовая глубина : 8 бит
Тип развёртки : Прогрессивная
Метод сжатия : С потерями
Бит/(Пиксели*Кадры) : 0.301
Размер потока : 682 Мбайт (91%)
Библиотека кодирования : XviD 67
Аудио
Идентификатор : 1
Формат : AC-3
Формат/Информация : Audio Coding 3
Расширение режима : CM (complete main)
Параметр Endianness формата : Big
Идентификатор кодека : 2000
Продолжительность : 43 м. 55 с.
Вид битрейта : Постоянный
Битрейт : 192 Кбит/сек
Каналы : 2 канала
Расположение каналов : Front: L R
Частота : 48,0 КГц
Частота кадров : 31,250 кадров/сек (1536 spf)
Битовая глубина : 16 бит
Метод сжатия : С потерями
Размер потока : 60,3 Мбайт (8%)
Выравнивание : Соединение по промежуткам
Продолжительность промежутка : 40 мс. (1,00 видеокадр)
Время предзагрузки промежутка : 512 мс.
Скриншоты:




Показать сообщения:    

Текущее время: 15-Дек 21:14

Часовой пояс: UTC + 11


Вы не можете начинать темы
Вы не можете отвечать на сообщения
Вы не можете редактировать свои сообщения
Вы не можете удалять свои сообщения
Вы не можете голосовать в опросах
Вы не можете прикреплять файлы к сообщениям
Вы не можете скачивать файлы

Сайт не предоставляет электронные версии произведений, а занимается лишь коллекционированием и каталогизацией ссылок, присылаемых и публикуемых на форуме нашими читателями. Если вы являетесь правообладателем какого-либо представленного материала и не желаете, чтобы ссылка на него находилась в нашем каталоге, свяжитесь с нами, и мы незамедлительно удалим ее. Файлы для обмена на трекере предоставлены пользователями сайта, и администрация не несет ответственности за их содержание. Просьба не заливать файлы, защищенные авторскими правами, а также файлы нелегального содержания!