+100


Топ за 24 часа
 
 

[Цитировать]

-Вероника не хочет умирать (2016) WEB-DLRip (серии 1-4 из 4)-Производство: Россия / студия "Про100Фильм"
Жанр: Детектив, мелодрама
Режиссер: Ольга Музалева
Актеры: Анастасия Лукьянова, Константин Самоуков, Родион Вьюшкин, Дмитрий Мазуров, Маргарита Быстрякова, Михаил Тарабукин, Арсений Гусев, Евгений Березовский, Мария Буравлева, Наталья Гриншпун ...
Описание: Вероника, успешная бизнес-леди, узнает об измене своего мужа Егора и собирается разводиться. Чтобы ленивый бездельник Егор не мог претендовать на ее бизнес при разделе имущества, Вероника по совету своего друга и партнера Артема переводит временно все активы на его другую фирму втайне от мужа. Через несколько дней на загородной трассе в автомобиль Вероники врезается грузовик. Вероника чудом остается жива, а ее подруга Марина, ехавшая не пристегнутой на пассажирском сидении, погибает. Авария оказывается не случайной ...

Возраст: 12+ (зрителям, достигшим 12 лет)
Дата российской премьеры: 10 декабря 2016
Продолжительность: ~ 00:45:00 серия
Качество видео: WEB-DLRip (AVC)
Видео: AVC, 1024x576 (16:9), 25.000 fps, 1 600 Kbps (0.109 bit/pixel)
Аудио: AC-3, 48.0 KHz, 2 ch, 192 Kbps, CBR

MediaInfo

Общее
Уникальный идентификатор : 239435827806457913101235619980273513104 (0xB421A9BDDA171CFD8FB544514643F290)
Полное имя : C:\NNM\Вероника не хочет умирать\Veronika ne hochet umiratj 2016 WEB-DLRip-AVC\Veronika 01.mkv
Формат : Matroska
Версия формата : Version 2
Размер файла : 578 Мбайт
Продолжительность : 45 м.
Общий поток : 1793 Кбит/сек
Дата кодирования : UTC 2016-12-11 00:33:22
Программа кодирования : mkvmerge v7.8.0 ('River Man') 32bit built on Apr 3 2015 12:11:22
Библиотека кодирования : libebml v1.3.1 + libmatroska v1.4.2
Видео
Идентификатор : 1
Формат : AVC
Формат/Информация : Advanced Video Codec
Профиль формата : High@L4.1
Параметр CABAC формата : Да
Параметр ReFrames формата : 9 кадров
Идентификатор кодека : V_MPEG4/ISO/AVC
Продолжительность : 45 м.
Битрейт : 1600 Кбит/сек
Ширина : 1024 пикселя
Высота : 576 пикселей
Соотношение сторон : 16:9
Режим частоты кадров : Постоянный
Частота кадров : 25,000 кадров/сек
Цветовое пространство : YUV
Субдискретизация насыщенности : 4:2:0
Битовая глубина : 8 бит
Тип развёртки : Прогрессивная
Бит/(Пиксели*Кадры) : 0.109
Размер потока : 504 Мбайт (87%)
Библиотека кодирования : x264 core 146 r2538 121396c
Настройки программы : cabac=1 / ref=9 / deblock=1:-2:-1 / analyse=0x3:0x113 / me=umh / subme=9 / psy=1 / psy_rd=1.00:0.15 / mixed_ref=1 / me_range=32 / chroma_me=1 / trellis=2 / 8x8dct=1 / cqm=0 / deadzone=21,11 / fast_pskip=0 / chroma_qp_offset=-3 / threads=6 / lookahead_threads=1 / sliced_threads=0 / nr=0 / decimate=1 / interlaced=0 / bluray_compat=0 / constrained_intra=0 / bframes=9 / b_pyramid=2 / b_adapt=2 / b_bias=0 / direct=1 / weightb=1 / open_gop=0 / weightp=2 / keyint=250 / keyint_min=25 / scenecut=40 / intra_refresh=0 / rc_lookahead=40 / rc=2pass / mbtree=1 / bitrate=1600 / ratetol=1.0 / qcomp=0.60 / qpmin=0 / qpmax=69 / qpstep=4 / cplxblur=20.0 / qblur=0.5 / vbv_maxrate=14000 / vbv_bufsize=14000 / nal_hrd=none / filler=0 / ip_ratio=1.40 / aq=2:1.00
Default : Да
Forced : Нет
Цветовой диапазон : Limited
Основные цвета : BT.709
Характеристики трансфера : BT.709
Коэффициенты матрицы : BT.709
Аудио
Идентификатор : 2
Формат : AC-3
Формат/Информация : Audio Coding 3
Расширение режима : CM (complete main)
Параметр Endianness формата : Big
Идентификатор кодека : A_AC3
Продолжительность : 45 м.
Вид битрейта : Постоянный
Битрейт : 192 Кбит/сек
Каналы : 2 канала
Расположение каналов : Front: L R
Частота : 48,0 КГц
Частота кадров : 31,250 кадров/сек (1536 spf)
Метод сжатия : С потерями
Размер потока : 61,9 Мбайт (11%)
Default : Да
Forced : Нет
Скриншоты:




Показать сообщения:    

Текущее время: 22-Окт 19:27

Часовой пояс: UTC + 11


Вы не можете начинать темы
Вы не можете отвечать на сообщения
Вы не можете редактировать свои сообщения
Вы не можете удалять свои сообщения
Вы не можете голосовать в опросах
Вы не можете прикреплять файлы к сообщениям
Вы не можете скачивать файлы

Сайт не предоставляет электронные версии произведений, а занимается лишь коллекционированием и каталогизацией ссылок, присылаемых и публикуемых на форуме нашими читателями. Если вы являетесь правообладателем какого-либо представленного материала и не желаете, чтобы ссылка на него находилась в нашем каталоге, свяжитесь с нами, и мы незамедлительно удалим ее. Файлы для обмена на трекере предоставлены пользователями сайта, и администрация не несет ответственности за их содержание. Просьба не заливать файлы, защищенные авторскими правами, а также файлы нелегального содержания!