+100


 

[Цитировать]

-Коварные игры (2016) HDTVRip [H.264] (серии 1-2 из 2)-Производство: Россия / Кинокомпания "Паламеда Продакшн"
Жанр: Мелодрама
Режиссер: Петр Степин
Актеры: Анастасия Ричи, Анна Казючиц, Дмитрий Панфилов, Руслан Чернецкий, Светлана Аникей, Елена Побегаева, Олеся Пуховая, Лариса Маршалова, Светлана Никифорова, Татьяна Кулеш ...
Описание: Люба из небольшого провинциального городка Ключанска работает на швейной фабрике и собирается замуж. Однако накануне свадьбы Любу предает жених. Спасаясь от позора, она сбегает в другой город к единственной родственнице — тете Кате.
Катя — успешная женщина, владеет клиникой ЭКО. Нередко к ней обращаются бездетные пары, для которых Катя ищет суррогатных матерей. Решая проблемы очередных богатых клиентов, Катя узнает, что Люба беременна. Люба хочет избавиться от ребенка, но тетя предлагает ей другой выход ...

Возраст: 12+ (зрителям, достигшим 12 лет)
Дата премьеры в России: 10 декабря 2016
Продолжительность: ~ 01:30:00 серия
Качество видео: HDTVRip (AVC)
Видео: AVC, 1024x576 (16:9), 25.000 fps, 2 000 Kbps (0.136 bit/pixel)
Аудио: AC-3, 48.0 KHz, 2 ch, 192 Kbps, CBR

MediaInfo

Общее
Уникальный идентификатор : 238148244083255151473589656355955743202 (0xB329AEF6780EF1E19176ED5B136F19E2)
Полное имя : C:\NNM\Коварные игры\Kovarnye igry 2016 HDTVRip-AVC\Kovarnye igry 01.mkv
Формат : Matroska
Версия формата : Version 2
Размер файла : 1,38 Гбайт
Продолжительность : 1 ч. 29 м.
Общий поток : 2194 Кбит/сек
Дата кодирования : UTC 2016-12-11 07:34:41
Программа кодирования : mkvmerge v7.8.0 ('River Man') 32bit built on Apr 3 2015 12:11:22
Библиотека кодирования : libebml v1.3.1 + libmatroska v1.4.2
Видео
Идентификатор : 1
Формат : AVC
Формат/Информация : Advanced Video Codec
Профиль формата : High@L4.1
Параметр CABAC формата : Да
Параметр ReFrames формата : 9 кадров
Идентификатор кодека : V_MPEG4/ISO/AVC
Продолжительность : 1 ч. 29 м.
Битрейт : 2000 Кбит/сек
Ширина : 1024 пикселя
Высота : 576 пикселей
Соотношение сторон : 16:9
Режим частоты кадров : Постоянный
Частота кадров : 25,000 кадров/сек
Цветовое пространство : YUV
Субдискретизация насыщенности : 4:2:0
Битовая глубина : 8 бит
Тип развёртки : Прогрессивная
Бит/(Пиксели*Кадры) : 0.136
Размер потока : 1,23 Гбайт (89%)
Библиотека кодирования : x264 core 146 r2538 121396c
Настройки программы : cabac=1 / ref=9 / deblock=1:-2:-1 / analyse=0x3:0x113 / me=umh / subme=9 / psy=1 / psy_rd=1.00:0.15 / mixed_ref=1 / me_range=32 / chroma_me=1 / trellis=2 / 8x8dct=1 / cqm=0 / deadzone=21,11 / fast_pskip=0 / chroma_qp_offset=-3 / threads=6 / lookahead_threads=1 / sliced_threads=0 / nr=0 / decimate=1 / interlaced=0 / bluray_compat=0 / constrained_intra=0 / bframes=9 / b_pyramid=2 / b_adapt=2 / b_bias=0 / direct=1 / weightb=1 / open_gop=0 / weightp=2 / keyint=250 / keyint_min=25 / scenecut=40 / intra_refresh=0 / rc_lookahead=40 / rc=2pass / mbtree=1 / bitrate=2000 / ratetol=1.0 / qcomp=0.60 / qpmin=0 / qpmax=69 / qpstep=4 / cplxblur=20.0 / qblur=0.5 / vbv_maxrate=14000 / vbv_bufsize=14000 / nal_hrd=none / filler=0 / ip_ratio=1.40 / aq=2:1.00
Default : Да
Forced : Нет
Цветовой диапазон : Limited
Основные цвета : BT.709
Характеристики трансфера : BT.709
Коэффициенты матрицы : BT.709
Аудио
Идентификатор : 2
Формат : AC-3
Формат/Информация : Audio Coding 3
Расширение режима : CM (complete main)
Параметр Endianness формата : Big
Идентификатор кодека : A_AC3
Продолжительность : 1 ч. 29 м.
Вид битрейта : Постоянный
Битрейт : 192 Кбит/сек
Каналы : 2 канала
Расположение каналов : Front: L R
Частота : 48,0 КГц
Частота кадров : 31,250 кадров/сек (1536 spf)
Метод сжатия : С потерями
Размер потока : 123 Мбайт (9%)
Default : Да
Forced : Нет
Скриншоты:




Показать сообщения:    

Текущее время: 28-Апр 01:51

Часовой пояс: UTC + 11


Вы не можете начинать темы
Вы не можете отвечать на сообщения
Вы не можете редактировать свои сообщения
Вы не можете удалять свои сообщения
Вы не можете голосовать в опросах
Вы не можете прикреплять файлы к сообщениям
Вы не можете скачивать файлы

Сайт не предоставляет электронные версии произведений, а занимается лишь коллекционированием и каталогизацией ссылок, присылаемых и публикуемых на форуме нашими читателями. Если вы являетесь правообладателем какого-либо представленного материала и не желаете, чтобы ссылка на него находилась в нашем каталоге, свяжитесь с нами, и мы незамедлительно удалим ее. Файлы для обмена на трекере предоставлены пользователями сайта, и администрация не несет ответственности за их содержание. Просьба не заливать файлы, защищенные авторскими правами, а также файлы нелегального содержания!