+100


Топ за 24 часа
 
 

[Цитировать]

- Синдбад. Пираты семи штормов (2016) WEB-DL [H.264/720p-LQ]-Производство: Россия, Кинокомпания СТВ, Анимационная студия Мельница
Жанр: Детский, Приключения
Режиссер: Владлен Барбэ
Персонажи: Андрей Лёвин, Катерина Шпица, Дмитрий Нагиев, Марина Лисовец, Диомид Виноградов, Юрий Стоянов, Андрей Кайков, Эдуард Радзюкевич, Игорь Лифанов, Илья Лыков
Описание:
Синдбад, молодой веселый пират, не очень удачлив в пиратском промысле — за год ему и его команде не удалось захватить ни одного корабля. Но судьба улыбается Синдбаду: старик Антиох показывает ему старинную карту и предлагает плыть на остров Скелета, где хранятся сокровища. Синдбад не знает, что этот Антиох — волшебник, который преследует свои корыстные планы...

Возраст: 6+ (зрителям, достигшим 6 лет)
Дата российской премьеры: 27 октября 2016, «Наше Кино»
Продолжительность: 01:17:30
Качество видео: WEB-DL
Видео: AVC, 1280x692 (1.850), 24.000 fps, 3 990 Kbps (0.188 bit/pixel)
Аудио: AC-3, 48.0 KHz, 6 ch, 384 Kbps, CBR (Русский)

MediaInfo

Формат : Matroska
Версия формата : Version 2
Размер файла : 2,42 Гбайт
Продолжительность : 1 ч. 17 м.
Общий поток : 4462 Кбит/сек
Дата кодирования : UTC 2016-11-28 20:47:51
Программа кодирования : mkvmerge v8.3.0 ('Over the Horizon') 64bit
Библиотека кодирования : libebml v1.3.1 + libmatroska v1.4.2
Видео
Идентификатор : 1
Формат : AVC
Формат/Информация : Advanced Video Codec
Профиль формата : High@L3.1
Параметр CABAC формата : Нет
Параметр ReFrames формата : 2 кадра
Параметр GOP формата : N=1
Идентификатор кодека : V_MPEG4/ISO/AVC
Продолжительность : 1 ч. 17 м.
Битрейт : 4076 Кбит/сек
Ширина : 1280 пикселей
Высота : 692 пикселя
Соотношение сторон : 1,85:1
Режим частоты кадров : Постоянный
Частота кадров : 24,000 кадра/сек
Цветовое пространство : YUV
Субдискретизация насыщенности : 4:2:0
Битовая глубина : 8 бит
Тип развёртки : Прогрессивная
Бит/(Пиксели*Кадры) : 0.192
Размер потока : 2,21 Гбайт (91%)
Язык : English
Default : Да
Forced : Нет
Цветовой диапазон : Limited
Основные цвета : BT.709
Характеристики трансфера : BT.709
Коэффициенты матрицы : BT.709
Аудио
Идентификатор : 2
Формат : AC-3
Формат/Информация : Audio Coding 3
Расширение режима : CM (complete main)
Параметр Endianness формата : Big
Идентификатор кодека : A_AC3
Продолжительность : 1 ч. 17 м.
Вид битрейта : Постоянный
Битрейт : 384 Кбит/сек
Каналы : 6 каналов
Расположение каналов : Front: L C R, Side: L R, LFE
Частота : 48,0 КГц
Частота кадров : 31,250 кадров/сек (1536 spf)
Битовая глубина : 16 бит
Метод сжатия : С потерями
Размер потока : 213 Мбайт (9%)
Язык : Russian
Default : Да
Forced : Нет
Скриншоты:




Показать сообщения:    

Текущее время: 17-Дек 22:44

Часовой пояс: UTC + 11


Вы не можете начинать темы
Вы не можете отвечать на сообщения
Вы не можете редактировать свои сообщения
Вы не можете удалять свои сообщения
Вы не можете голосовать в опросах
Вы не можете прикреплять файлы к сообщениям
Вы не можете скачивать файлы

Сайт не предоставляет электронные версии произведений, а занимается лишь коллекционированием и каталогизацией ссылок, присылаемых и публикуемых на форуме нашими читателями. Если вы являетесь правообладателем какого-либо представленного материала и не желаете, чтобы ссылка на него находилась в нашем каталоге, свяжитесь с нами, и мы незамедлительно удалим ее. Файлы для обмена на трекере предоставлены пользователями сайта, и администрация не несет ответственности за их содержание. Просьба не заливать файлы, защищенные авторскими правами, а также файлы нелегального содержания!