+100


Топ за 24 часа
 
 

[Цитировать]

-Тайная жизнь домашних животных / The Secret Life of Pets (2016) BDRemux [H.264/1080p]«Думаете, они ждут вас у порога весь день?»-Производство: Япония, США / Dentsu, Fuji Television Network Inc., Universal Pictures
Жанр: мультфильм, комедия, приключения, семейный
Режиссер: Ярроу Чейни, Крис Рено
Продюсер: Джанет Хили, Бретт Хоффман, Кристофер Меледандри
Персонажи: Луис С.К., Эрик Стоунстрит, Кевин Харт, Дженни Слейт, Элли Кемпер, Альберт Брукс, Лэйк Белл, Дэна Карви, Хэннибал Бёресс, Бобби Мойнахан
Описание:
Что делают домашние животные пока хозяева пропадают на работе? С тоской смотрят в окно? Смиренно дремлют на коврике у двери? Как бы не так. Они ведут свою тайную жизнь.

Возраст: 6+ (зрителям, достигшим 6 лет)
Рейтинг MPAA: PG (рекомендуется присутствие родителей)
Дата мировой премьеры: 16 июня 2016
Дата российской премьеры: 18 августа 2016, «UPI» 3D

Продолжительность: 01:26:27
Качество: BDRemux
Перевод: Дублированный (Лицензия BD CEE)
Вид субтитров: Вшитые, отключаемые
Язык субтитров: Русский, Английский
Видео: AVC/H.264, 1920x1080p, (16:9), 23854 kbps, 23.976 fps
Аудио: AC3, 6 ch, 640 kbps - Русский
Аудио: Dolby Atmos TrueHD, 8 ch, 4764 kbps - Английский

MediaInfo

General
Unique ID : 231124766757612360384251902157211884381 (0xADE102CB931170B69EDEFACBF9C4DB5D)
Complete name : G:VideoThe.Secret.Life.of.Pets.2016.BDREMUX.1080p.ExKinoRay.mkv
Format : Matroska
Format version : Version 4 / Version 2
File size : 17.7 GiB
Duration : 1 h 26 min
Overall bit rate mode : Variable
Overall bit rate : 29.3 Mb/s
Movie name : The.Secret.Life.of.Pets.2016.build by ***селезень***
Encoded date : UTC 2016-12-09 01:21:15
Writing application : mkvmerge v8.3.0 ('Over the Horizon') 64bit
Writing library : libebml v1.3.1 + libmatroska v1.4.2
Video
ID : 1
Format : AVC
Format/Info : Advanced Video Codec
Format profile : [url=mailto:High@L4.1]High@L4.1[/url]
Format settings, CABAC : Yes
Format settings, ReFrames : 4 frames
Codec ID : V_MPEG4/ISO/AVC
Duration : 1 h 26 min
Bit rate mode : Variable
Bit rate : 23.8 Mb/s
Maximum bit rate : 28.0 Mb/s
Width : 1 920 pixels
Height : 1 080 pixels
Display aspect ratio : 16:9
Frame rate mode : Constant
Frame rate : 23.976 (24000/1001) FPS
Color space : YUV
Chroma subsampling : 4:2:0
Bit depth : 8 bits
Scan type : Progressive
Bits/(Pixel*Frame) : 0.479
Stream size : 14.4 GiB (81%)
Title : The.Secret.Life.of.Pets.2016.build by ***селезень***
Language : English
Default : Yes
Forced : No
Audio #1
ID : 2
Format : AC-3
Format/Info : Audio Coding 3
Mode extension : CM (complete main)
Format settings, Endianness : Big
Codec ID : A_AC3
Duration : 1 h 26 min
Bit rate mode : Constant
Bit rate : 640 kb/s
Channel(s) : 6 channels
Channel positions : Front: L C R, Side: L R, LFE
Sampling rate : 48.0 kHz
Frame rate : 31.250 FPS (1536 spf)
Bit depth : 16 bits
Compression mode : Lossy
Stream size : 396 MiB (2%)
Title : Dub [License]
Language : Russian
Default : Yes
Forced : No
Audio #2
ID : 3
Format : Atmos / TrueHD
Codec ID : A_TRUEHD
Duration : 1 h 26 min
Bit rate mode : Variable
Bit rate : 4 764 kb/s
Maximum bit rate : 7 371 kb/s
Channel(s) : Object Based / 8 channels
Channel positions : Object Based / Front: L C R, Side: L R, Back: L R, LFE
Sampling rate : / 48.0 kHz
Frame rate : 1 200.000 FPS (40 spf)
Compression mode : Lossless
Stream size : 2.88 GiB (16%)
Title : Original
Language : English
Default : No
Forced : No
Text #1
ID : 4
Format : UTF-8
Codec ID : S_TEXT/UTF8
Codec ID/Info : UTF-8 Plain Text
Duration : 1 h 18 min
Bit rate : 1 b/s
Count of elements : 18
Stream size : 709 Bytes (0%)
Title : Forced
Language : Russian
Default : Yes
Forced : No
Text #2
ID : 5
Format : UTF-8
Codec ID : S_TEXT/UTF8
Codec ID/Info : UTF-8 Plain Text
Duration : 1 h 25 min
Bit rate : 50 b/s
Count of elements : 1314
Stream size : 31.5 KiB (0%)
Title : Full
Language : English
Default : No
Forced : No
Text #3
ID : 6
Format : UTF-8
Codec ID : S_TEXT/UTF8
Codec ID/Info : UTF-8 Plain Text
Duration : 1 h 26 min
Bit rate : 61 b/s
Count of elements : 1685
Stream size : 39.0 KiB (0%)
Title : SDH
Language : English
Default : No
Forced : No
Menu
00:00:00.000 : en:00:00:00.000
00:05:05.847 : en:00:05:05.847
00:09:24.063 : en:00:09:24.063
00:13:18.840 : en:00:13:18.840
00:18:03.666 : en:00:18:03.666
00:22:14.458 : en:00:22:14.458
00:28:51.855 : en:00:28:51.855
00:32:54.848 : en:00:32:54.848
00:36:55.839 : en:00:36:55.839
00:42:27.295 : en:00:42:27.295
00:44:46.767 : en:00:44:46.767
00:50:21.227 : en:00:50:21.227
00:54:45.407 : en:00:54:45.407
00:59:33.987 : en:00:59:33.987
01:02:36.544 : en:01:02:36.544
01:07:12.362 : en:01:07:12.362
01:13:06.841 : en:01:13:06.841
01:16:04.602 : en:01:16:04.602
01:18:48.057 : en:01:18:48.057
01:19:58.836 : en:01:19:58.836
Скриншоты:




Показать сообщения:    

Текущее время: 25-Фев 01:49

Часовой пояс: UTC + 11


Вы не можете начинать темы
Вы не можете отвечать на сообщения
Вы не можете редактировать свои сообщения
Вы не можете удалять свои сообщения
Вы не можете голосовать в опросах
Вы не можете прикреплять файлы к сообщениям
Вы не можете скачивать файлы

Сайт не предоставляет электронные версии произведений, а занимается лишь коллекционированием и каталогизацией ссылок, присылаемых и публикуемых на форуме нашими читателями. Если вы являетесь правообладателем какого-либо представленного материала и не желаете, чтобы ссылка на него находилась в нашем каталоге, свяжитесь с нами, и мы незамедлительно удалим ее. Файлы для обмена на трекере предоставлены пользователями сайта, и администрация не несет ответственности за их содержание. Просьба не заливать файлы, защищенные авторскими правами, а также файлы нелегального содержания!