+100


Топ за 24 часа
 
 

[Цитировать]

- Джокер 2. Операция «Капкан» (2016) SATRip (серии 1-4 из 4)-Производство: Россия | Кинокомпания BERG SOUND[
Жанр: Боевик
Режиссер: Михаил Погосов
Актеры: Дмитрий Клепацкий, Александр Штендлер, Анна Невская, Олег Шкловский, Евгений Березовский, Евгений Осокин, Алексей Агрызков, Игорь Трошин, Павел Кузьмин, Дмитрий Самойлов (II) и др.
Описание:
Недолго Артур Королев наслаждался своеобразным отдыхом от опасных дел по ликвидации преступных элементов. Ему пришлось столкнуться с предательством друга, что повлекло за собой серьезные проблемы. Судьба усадила Артура за решетку. Но благодаря силе духа он выдержал все свалившиеся на него испытания. На то он и джокер 2 операция капкан станет новой отправной точкой в его приключениях, наполненных запахом пороха и опасностью. Ещё более закаленный и даже озлобленный из-за несправедливости, коснувшейся его лично, он без жалости и сострадания даст бой бандитам. Его методы борьбы пополнятся новыми примочками. Гнев, который вызвал в нем поступок друга сублимировался в агрессию против преступников, но Артур не забывает, кто является основной

Возраст: 16+ (зрителям, достигшим 16 лет)
Продолжительность: ~ 00:46:00 серия
Качество видео: SATRip
Видео: Xvid, 720x464, ~1603 kbps
Аудио: AC3, 2 ch, 192 kbps

MediaInfo

Формат : AVI
Формат/Информация : Audio Video Interleave
Размер файла : 597 Мбайт
Продолжительность : 46 м. 17 с.
Общий поток : 1804 Кбит/сек
Программа кодирования : VirtualDubModRus 1.5.10.2 (build 2542/release)
Библиотека кодирования : VirtualDubMod build 2542/release
Видео
Идентификатор : 0
Формат : MPEG-4 Visual
Профиль формата : Advanced Simple@L5
Параметр BVOP формата : 1
Параметр QPel формата : Нет
Параметр GMC формата : Без точки перехода
Параметр матрицы формата : Выборочная
Идентификатор кодека : XVID
Идентификатор кодека/Подсказка : XviD
Продолжительность : 46 м. 17 с.
Битрейт : 1603 Кбит/сек
Ширина : 720 пикселей
Высота : 464 пикселя
Соотношение сторон : 16:10
Частота кадров : 25,000 кадров/сек
Цветовое пространство : YUV
Субдискретизация насыщенности : 4:2:0
Битовая глубина : 8 бит
Тип развёртки : Прогрессивная
Метод сжатия : С потерями
Бит/(Пиксели*Кадры) : 0.192
Размер потока : 531 Мбайт (89%)
Библиотека кодирования : XviD 73
Аудио
Идентификатор : 1
Формат : AC-3
Формат/Информация : Audio Coding 3
Расширение режима : CM (complete main)
Параметр Endianness формата : Big
Идентификатор кодека : 2000
Продолжительность : 46 м. 17 с.
Вид битрейта : Постоянный
Битрейт : 192 Кбит/сек
Каналы : 2 канала
Расположение каналов : Front: L R
Частота : 48,0 КГц
Частота кадров : 31,250 кадров/сек (1536 spf)
Битовая глубина : 16 бит
Метод сжатия : С потерями
Размер потока : 63,6 Мбайт (11%)
Выравнивание : Разделение по промежуткам
Продолжительность промежутка : 40 мс. (1,00 видеокадр)
Время предзагрузки промежутка : 500 мс.
Скриншоты:




Показать сообщения:    

Текущее время: 21-Авг 02:28

Часовой пояс: UTC + 11


Вы не можете начинать темы
Вы не можете отвечать на сообщения
Вы не можете редактировать свои сообщения
Вы не можете удалять свои сообщения
Вы не можете голосовать в опросах
Вы не можете прикреплять файлы к сообщениям
Вы не можете скачивать файлы

Сайт не предоставляет электронные версии произведений, а занимается лишь коллекционированием и каталогизацией ссылок, присылаемых и публикуемых на форуме нашими читателями. Если вы являетесь правообладателем какого-либо представленного материала и не желаете, чтобы ссылка на него находилась в нашем каталоге, свяжитесь с нами, и мы незамедлительно удалим ее. Файлы для обмена на трекере предоставлены пользователями сайта, и администрация не несет ответственности за их содержание. Просьба не заливать файлы, защищенные авторскими правами, а также файлы нелегального содержания!