+100


Топ за 24 часа
 
 

[Цитировать]

- Аисты / Storks (2016) BDRip [H.264/720p]-Производство: США / Warner Animation Group, RatPac-Dune Entertainment, Stoller Global Solutions
Жанр: Фентези, Комедия, Приключения, Семейный
Режиссер: Николас Столлер, Даг Свитлэнд
Актеры: Энди Сэмберг, Кэти Краун, Келси Грэммер, Дженнифер Энистон, Тай Бурелл, Антон Старкман, Кигэн-Майкл Ки, Джордан Пил, Дэнни Трехо, Стив Гликман
Описание:
Аисты приносят детей… или, во всяком случае, раньше приносили. Теперь же они занимаются доставкой посылок для огромного сайта интернет-продаж. Джуниор, лучший аист в курьерской компании, должен пойти на повышение, но он случайно активирует машину для создания детей и получает очаровательную, но совершенно незапланированную девочку.
Пытаясь доставить эту «посылку» до того, как босс узнает о произошедшем, Джуниор и его подруга Лютик, единственный человек на Горе Аистов, решаются на свою первую доставку ребёнка и отправляются в безумное и насыщенное удивительными открытиями приключение, благодаря которому многие семьи могут стать полными, а аисты — вернуться к своей истинной миссии на Земле.

Возраст: 6+ (зрителям, достигшим 6 лет)
Рейтинг MPAA: PG (рекомендуется присутствие родителей)
Дата мировой премьеры: 22 сентября 2016
Дата российской премьеры: 22 сентября 2016, «Каро-Премьер»
Продолжительность: 01:26:58
Качество видео: BDRip 720р
Перевод: Дублированный (iTunes)
Вид субтитров: Отсутствуют
Видео: AVC/H.264, 1280x536, ~7944 Кbps
Аудио: AC3, 6 ch, 384 Kbps - Русский (iTunes)
Аудио: DTS, 6 ch, 1509 Kbps - Английский (оригинал)

MediaInfo

General
Unique ID : 172472615124231744893929411316304894050 (0x81C10474AF0C999FA6B395454E68D862)
Complete name : E:\Storks.2016.BDRip.720p.mkv
Format : Matroska
Format version : Version 4 / Version 2
File size : 6.10 GiB
Duration : 1h 26mn
Overall bit rate : 10.0 Mbps
Encoded date : UTC 2016-12-06 23:03:55
Writing application : mkvmerge v8.3.0 ('Over the Horizon') 64bit
Writing library : libebml v1.3.1 + libmatroska v1.4.2
DURATION : 01:26:55.904000000
NUMBER_OF_FRAMES : 162997
NUMBER_OF_BYTES : 250363392
_STATISTICS_WRITING_APP : mkvmerge v8.3.0 ('Over the Horizon') 64bit
_STATISTICS_WRITING_DATE_UTC : 2016-12-06 23:03:55
_STATISTICS_TAGS : BPS DURATION NUMBER_OF_FRAMES NUMBER_OF_BYTES
Video
ID : 1
Format : AVC
Format/Info : Advanced Video Codec
Format profile : High@L4.1
Format settings, CABAC : Yes
Format settings, ReFrames : 12 frames
Codec ID : V_MPEG4/ISO/AVC
Duration : 1h 26mn
Bit rate : 7 944 Kbps
Width : 1 280 pixels
Height : 536 pixels
Display aspect ratio : 2.40:1
Frame rate mode : Constant
Frame rate : 23.976 fps
Color space : YUV
Chroma subsampling : 4:2:0
Bit depth : 8 bits
Scan type : Progressive
Bits/(Pixel*Frame) : 0.483
Stream size : 4.83 GiB (79%)
Language : English
Default : Yes
Forced : No
Audio #1
ID : 2
Format : AC-3
Format/Info : Audio Coding 3
Mode extension : CM (complete main)
Format settings, Endianness : Big
Codec ID : A_AC3
Duration : 1h 26mn
Bit rate mode : Constant
Bit rate : 384 Kbps
Channel(s) : 6 channels
Channel positions : Front: L C R, Side: L R, LFE
Sampling rate : 48.0 KHz
Compression mode : Lossy
Delay relative to video : 928ms
Stream size : 239 MiB (4%)
Language : Russian
Default : Yes
Forced : No
Audio #2
ID : 3
Format : DTS
Format/Info : Digital Theater Systems
Mode : 16
Format settings, Endianness : Big
Codec ID : A_DTS
Duration : 1h 26mn
Bit rate mode : Constant
Bit rate : 1 509 Kbps
Channel(s) : 6 channels
Channel positions : Front: L C R, Side: L R, LFE
Sampling rate : 48.0 KHz
Bit depth : 16 bits
Compression mode : Lossy
Stream size : 939 MiB (15%)
Language : English
Default : No
Forced : No
Menu
00:00:00.000 : en:00:00:00.000
00:10:01.559 : en:00:10:01.559
00:21:07.349 : en:00:21:07.349
00:30:12.936 : en:00:30:12.936
00:40:57.664 : en:00:40:57.664
00:50:38.285 : en:00:50:38.285
00:58:43.603 : en:00:58:43.603
01:09:54.190 : en:01:09:54.190
01:16:21.285 : en:01:16:21.285
Скриншоты:




Показать сообщения:    

Текущее время: 25-Фев 01:50

Часовой пояс: UTC + 11


Вы не можете начинать темы
Вы не можете отвечать на сообщения
Вы не можете редактировать свои сообщения
Вы не можете удалять свои сообщения
Вы не можете голосовать в опросах
Вы не можете прикреплять файлы к сообщениям
Вы не можете скачивать файлы

Сайт не предоставляет электронные версии произведений, а занимается лишь коллекционированием и каталогизацией ссылок, присылаемых и публикуемых на форуме нашими читателями. Если вы являетесь правообладателем какого-либо представленного материала и не желаете, чтобы ссылка на него находилась в нашем каталоге, свяжитесь с нами, и мы незамедлительно удалим ее. Файлы для обмена на трекере предоставлены пользователями сайта, и администрация не несет ответственности за их содержание. Просьба не заливать файлы, защищенные авторскими правами, а также файлы нелегального содержания!