+100


Топ за 24 часа
 
 

[Цитировать]

- Обратная сторона Луны (2016) WEB-DLRip (сезон 2, серии 1-16 из 16)-Производство: Россия
Жанр: драма, детектив, фантастика
Режиссер: Александр Котт
Актеры: Павел Деревянко, Светлана Смирнова-Марцинкевич, Иван Шибанов, Анатолий Горячев, Михаил Грубов, Сергей Карякин, Дмитрий Горевой, Максим Виторган, Алёна Константинова, Сергей Петров и др.
Описание:
Куда на этот раз забросит судьба Михаила Соловьева? Каким временем или параллельной реальностью продюсеры и авторы второго сезона удивят зрителя? Одно можно сказать с уверенностью: в этом сезоне капитан Соловьев еще раз попробует поймать неуловимого рыжего маньяка, прорвавшегося с ним в это время, и постарается найти свое время. Ведь времена не выбирают, в них живут и умирают.

Продолжительность: ~00:52:00 серия
Качество видео: WEB-DLRip
Видео: Xvid, 720x400 (16:9), ~1790 Kbps
Аудио: AC3, 2 ch, 192 Kbps, CBR

MediaInfo

Общее
Полное имя : D:\Фильмы\Мои раздачи\Обратная сторона Луны\Обратная сторона Луны 2.2016.WEB-DLRip\Obratnaja.storona.Luny.2.(01.seriya).2016.WEB-DLRip.avi
Формат : AVI
Формат/Информация : Audio Video Interleave
Размер файла : 699 Мбайт
Продолжительность : 51 м.
Общий поток : 1910 Кбит/сек
Программа кодирования : VirtualDubMod 1.5.10.2 (build 2540/release)
Библиотека кодирования : VirtualDubMod build 2540/release
Видео
Идентификатор : 0
Формат : MPEG-4 Visual
Профиль формата : Advanced Simple@L5
Параметр BVOP формата : 1
Параметр QPel формата : Нет
Параметр GMC формата : Без точки перехода
Параметр матрицы формата : Выборочная
Идентификатор кодека : XVID
Идентификатор кодека/Подсказка : XviD
Продолжительность : 51 м.
Битрейт : 1709 Кбит/сек
Ширина : 720 пикселей
Высота : 400 пикселей
Соотношение сторон : 16:9
Частота кадров : 25,000 кадров/сек
Цветовое пространство : YUV
Субдискретизация насыщенности : 4:2:0
Битовая глубина : 8 бит
Тип развёртки : Прогрессивная
Метод сжатия : С потерями
Бит/(Пиксели*Кадры) : 0.237
Размер потока : 626 Мбайт (89%)
Библиотека кодирования : XviD 1.2.1 (UTC 2008-12-04)
Аудио
Идентификатор : 1
Формат : AC-3
Формат/Информация : Audio Coding 3
Расширение режима : CM (complete main)
Параметр Endianness формата : Big
Идентификатор кодека : 2000
Продолжительность : 51 м.
Вид битрейта : Постоянный
Битрейт : 192 Кбит/сек
Каналы : 2 канала
Расположение каналов : Front: L R
Частота : 48,0 КГц
Битовая глубина : 16 бит
Метод сжатия : С потерями
Размер потока : 70,3 Мбайт (10%)
Выравнивание : Разделение по промежуткам
Продолжительность промежутка : 40 мс. (1,00 видеокадр)
Время предзагрузки промежутка : 500 мс.
Скриншоты:




Показать сообщения:    

Текущее время: 18-Дек 12:16

Часовой пояс: UTC + 11


Вы не можете начинать темы
Вы не можете отвечать на сообщения
Вы не можете редактировать свои сообщения
Вы не можете удалять свои сообщения
Вы не можете голосовать в опросах
Вы не можете прикреплять файлы к сообщениям
Вы не можете скачивать файлы

Сайт не предоставляет электронные версии произведений, а занимается лишь коллекционированием и каталогизацией ссылок, присылаемых и публикуемых на форуме нашими читателями. Если вы являетесь правообладателем какого-либо представленного материала и не желаете, чтобы ссылка на него находилась в нашем каталоге, свяжитесь с нами, и мы незамедлительно удалим ее. Файлы для обмена на трекере предоставлены пользователями сайта, и администрация не несет ответственности за их содержание. Просьба не заливать файлы, защищенные авторскими правами, а также файлы нелегального содержания!