+100


Топ за 24 часа
 
 

[Цитировать]

- Письма из прошлого (2016) SATRip [H.264] (серии 1-4 из 4) -Производство: Россия / «Энерджи Фильм»
Жанр: детектив, мелодрама
Режиссер: Владимир Блакашинов
Актеры: Антонина Дивина, Алексей Зубков, Роман Индык, Анатолий Гущин, Егор Кутенков, Кристина Кузьмина, Виктор Сарайкин, Константин Войтенко, Ольга Гришина, Людмила Загорская, Евгений Пашин, Михаил Досенко и др.
Описание:
Маруся Бурова, молодая девушка из северного российского городка, умница, красавица, автогонщица, переживает не лучшие времена. Маруся только что похоронила маму, которая растила ее одна. Мамин брат, дядя Витя, уговаривает ее переехать к нему в Москву. Среди бумаг матери Маруся находит неотправленные письма к ее единственному возлюбленному, Марусиному отцу. Маруся решает разыскать отца. Под романтические описания из старых писем подходят сразу три кандидата – «три мушкетера», друзья с юности, связанные теперь непростыми деловыми отношениями.Продолжая поиски, Маруся оказывается в центре запутанной интриги, которая может разрушить старую дружбу «мушкетеров», а возможно – всерьез угрожает жизни одного из них.

Возраст: 16+ (зрителям, достигшим 16 лет)
Дата российской премьеры: 03 декабря 2016 (ТВЦ)
Релиз от: Korsar
Продолжительность: ~00:43:00 серия
Качество видео: SATRip
Видео: AVC/H.264, 720x400 (16:9), ~1300 Кбит/сек
Аудио: AC3,2 канала,192 Кбит/сек, CBR

MediaInfo

Общее
Уникальный идентификатор : 178871085456876611725415243518570297349 (0x86915166431427E1AFD0686085BE7805)
Полное имя : K:\Письма из прошлого\01 серия_Письма из прошлого_rip by_Aleksan55.mkv
Формат : Matroska
Версия формата : Version 2
Размер файла : 467 Мбайт
Продолжительность : 43 м.
Общий поток : 1494 Кбит/сек
Дата кодирования : UTC 2016-12-03 13:55:57
Программа кодирования : mkvmerge v7.8.0 ('River Man') 32bit built on Apr 3 2015 12:11:22
Библиотека кодирования : libebml v1.3.1 + libmatroska v1.4.2
Видео
Идентификатор : 1
Формат : AVC
Формат/Информация : Advanced Video Codec
Профиль формата : High@L3.1
Параметр CABAC формата : Да
Параметр ReFrames формата : 14 кадров
Идентификатор кодека : V_MPEG4/ISO/AVC
Продолжительность : 43 м.
Битрейт : 1300 Кбит/сек
Ширина : 720 пикселей
Высота : 400 пикселей
Соотношение сторон : 16:9
Режим частоты кадров : Постоянный
Частота кадров : 25,000 кадров/сек
Цветовое пространство : YUV
Субдискретизация насыщенности : 4:2:0
Битовая глубина : 8 бит
Тип развёртки : Прогрессивная
Бит/(Пиксели*Кадры) : 0.181
Размер потока : 398 Мбайт (85%)
Библиотека кодирования : x264 core 148 r2638 7599210
Настройки программы : cabac=1 / ref=14 / deblock=1:-1:-1 / analyse=0x3:0x133 / me=umh / subme=9 / psy=1 / psy_rd=1.00:0.15 / mixed_ref=0 / me_range=32 / chroma_me=1 / trellis=2 / 8x8dct=1 / cqm=0 / deadzone=21,11 / fast_pskip=0 / chroma_qp_offset=-3 / threads=2 / lookahead_threads=3 / sliced_threads=0 / nr=0 / decimate=0 / interlaced=0 / bluray_compat=0 / constrained_intra=0 / bframes=14 / b_pyramid=2 / b_adapt=1 / b_bias=0 / direct=3 / weightb=1 / open_gop=0 / weightp=2 / keyint=250 / keyint_min=25 / scenecut=40 / intra_refresh=0 / rc_lookahead=60 / rc=2pass / mbtree=1 / bitrate=1300 / ratetol=1.0 / qcomp=0.80 / qpmin=0 / qpmax=40 / qpstep=4 / cplxblur=20.0 / qblur=0.5 / ip_ratio=1.40 / aq=1:1.20
Default : Да
Forced : Нет
Цветовой диапазон : Limited
Основные цвета : BT.601 PAL
Характеристики трансфера : BT.470 System B, BT.470 System G
Коэффициенты матрицы : BT.601
Аудио
Идентификатор : 2
Формат : AC-3
Формат/Информация : Audio Coding 3
Расширение режима : CM (complete main)
Параметр Endianness формата : Big
Идентификатор кодека : A_AC3
Продолжительность : 43 м.
Вид битрейта : Постоянный
Битрейт : 192 Кбит/сек
Каналы : 2 канала
Расположение каналов : Front: L R
Частота : 48,0 КГц
Метод сжатия : С потерями
Размер потока : 60,1 Мбайт (13%)
Default : Да
Forced : Нет
Скриншоты:




Показать сообщения:    

Текущее время: 22-Окт 19:26

Часовой пояс: UTC + 11


Вы не можете начинать темы
Вы не можете отвечать на сообщения
Вы не можете редактировать свои сообщения
Вы не можете удалять свои сообщения
Вы не можете голосовать в опросах
Вы не можете прикреплять файлы к сообщениям
Вы не можете скачивать файлы

Сайт не предоставляет электронные версии произведений, а занимается лишь коллекционированием и каталогизацией ссылок, присылаемых и публикуемых на форуме нашими читателями. Если вы являетесь правообладателем какого-либо представленного материала и не желаете, чтобы ссылка на него находилась в нашем каталоге, свяжитесь с нами, и мы незамедлительно удалим ее. Файлы для обмена на трекере предоставлены пользователями сайта, и администрация не несет ответственности за их содержание. Просьба не заливать файлы, защищенные авторскими правами, а также файлы нелегального содержания!