+100


Топ за 24 часа
 
 

[Цитировать]

-Письма из прошлого (2016) WEB-DLRip (серии 1-4 из 4)-Производство: Россия / Энерджи Фильм
Жанр: детектив, мелодрама
Режиссер: Владимир Блакашинов
Актеры: Антонина Дивина, Кристина Кузьмина, Алексей Зубков, Роман Индык, Анатолий Гущин, Егор Кутенков, Ольга Гришина, Людмила Загорская, Константин Войтенко, Виктор Сарайкин и др.
Описание:
Иногда, пытаясь открыть загадки прошлого, можно навлечь беду. Но у Маруси не остается другого выхода. После смерти матери она нашла в ее вещах старые письма, адресованные ее отцу, которого девушка никогда не видела. В письмах мама называет его Графом. Но кто он? Маруся решила во что бы то ни стало найти его. Вот только это будет сложней, чем могло показаться на первый взгляд. Ведь на человека из писем похожи сразу трое давних друзей, которых теперь связывает еще и бизнес. Внезапно возникшая в их жизни молодая девушка может серьезно навредить их отношениям. К тому же Маруся узнает, что на одного их них готовится покушение...

Возраст: 16+ (зрителям, достигшим 16 лет)
Дата премьеры в России: 3 декабря 2016
Продолжительность: ~00:45:00 серия
Качество видео: WEB-DLRip
Видео: XviD, 720x400 (16:9), ~1530 Kbps
Аудио: AC-3, 48.0 KHz, 2 ch, 192 Kbps, CBR

MediaInfo

Общее
Полное имя : C:\NNM\Письма из прошлого\Pisjma iz proshlogo 2016 WEB-DLRip\Pisjma 02.avi
Формат : AVI
Формат/Информация : Audio Video Interleave
Размер файла : 550 Мбайт
Продолжительность : 44 м.
Общий поток : 1731 Кбит/сек
Программа кодирования : VirtualDubMod 1.5.10.3 | www.virtualdub-fr.org || (build 2550/release)
Библиотека кодирования : VirtualDubMod build 2550/release
Видео
Идентификатор : 0
Формат : MPEG-4 Visual
Профиль формата : Advanced Simple@L5
Параметр BVOP формата : 1
Параметр QPel формата : Нет
Параметр GMC формата : Без точки перехода
Параметр матрицы формата : Выборочная
Идентификатор кодека : XVID
Идентификатор кодека/Подсказка : XviD
Продолжительность : 44 м.
Битрейт : 1530 Кбит/сек
Ширина : 720 пикселей
Высота : 400 пикселей
Соотношение сторон : 16:9
Частота кадров : 25,000 кадров/сек
Цветовое пространство : YUV
Субдискретизация насыщенности : 4:2:0
Битовая глубина : 8 бит
Тип развёртки : Прогрессивная
Метод сжатия : С потерями
Бит/(Пиксели*Кадры) : 0.212
Размер потока : 486 Мбайт (88%)
Библиотека кодирования : XviD 73
Аудио
Идентификатор : 1
Формат : AC-3
Формат/Информация : Audio Coding 3
Расширение режима : CM (complete main)
Параметр Endianness формата : Big
Идентификатор кодека : 2000
Продолжительность : 44 м.
Вид битрейта : Постоянный
Битрейт : 192 Кбит/сек
Каналы : 2 канала
Расположение каналов : Front: L R
Частота : 48,0 КГц
Частота кадров : 31,250 кадров/сек (1536 spf)
Метод сжатия : С потерями
Размер потока : 61,0 Мбайт (11%)
Выравнивание : Разделение по промежуткам
Продолжительность промежутка : 40 мс. (1,00 видеокадр)
Время предзагрузки промежутка : 500 мс.
Скриншоты:




Показать сообщения:    

Текущее время: 25-Фев 01:49

Часовой пояс: UTC + 11


Вы не можете начинать темы
Вы не можете отвечать на сообщения
Вы не можете редактировать свои сообщения
Вы не можете удалять свои сообщения
Вы не можете голосовать в опросах
Вы не можете прикреплять файлы к сообщениям
Вы не можете скачивать файлы

Сайт не предоставляет электронные версии произведений, а занимается лишь коллекционированием и каталогизацией ссылок, присылаемых и публикуемых на форуме нашими читателями. Если вы являетесь правообладателем какого-либо представленного материала и не желаете, чтобы ссылка на него находилась в нашем каталоге, свяжитесь с нами, и мы незамедлительно удалим ее. Файлы для обмена на трекере предоставлены пользователями сайта, и администрация не несет ответственности за их содержание. Просьба не заливать файлы, защищенные авторскими правами, а также файлы нелегального содержания!