+100


Топ за 24 часа
 
 

[Цитировать]

-Олли и сокровища пиратов / Dive Olly Dive and the Pirate Treasure (2014) DVDRip- Год выпуска: 2014
Производство: США / MoonScoop
Жанр: Приключения, Семейный
Перевод: Дублированный [лицензия]
Субтитры: Отсутствуют
Дата мировой премьеры: 1 мая 2014
Дата российской премьеры: 1 мая 2014, «АКМ» 3D
Дата выхода DVD релиза: 3 июня 2014, «Активижен»
Режиссер: Боб Дусетте, Гари Херст, Боб Бакстер
Продюсер: Лиз Янг, Николас Этлан, Джин Гуопинь
Актеры: Айза Долматова, Алёна Водонаева, Ксения Бородина
Описание фильма:
К подводным лодками Олли и Бэт присоединяется их друг Бобси, который совершенно убежден, что является потомком «Пи-Ратов» — давних искателей легендарного клада.
Их путешествие за сокровищем наполнено чудесами, приключениями и, конечно, юмором, потому что по пятам за ним следует банда Красных Морских Коньков под предводительством интеллигентной, но крайне опасной Акулы… Но даже это не смогло остановить наших героев! Олли, Бэт и Бобси переживут сильный шторм, преодолеют все препятствия и в конце концов смогут найти клад!
Но основное, что наши охотники за сокровищами поймут к концу этой гонки, что самое главное — это, конечно, семья и друзья!

Продолжительность: 01:16:43
Качество видео: DVDRip
Видеокодек: Xvid
Битрейт видео: ~2095 Кбит/с
Размер кадра: 720x400
Аудиокодек: AC3 5.1
Битрейт аудио: 448 Kb/s
Сэмпл: Скачать

MediaInfo:

Общее
Полное имя                               : Olli.i.Sokrovisha.Piratov.2014.D.DVDRip.1400MB.nnm-club.avi
Формат                                   : AVI
Формат/Информация                        : Audio Video Interleave
Размер файла                             : 1,37 Гбайт
Продолжительность                        : 1 ч. 16 м.
Общий поток                              : 2552 Кбит/сек
Программа кодирования                    : VirtualDubMod 1.5.10.3 | | (build 2550/release)
Библиотека кодирования                   : VirtualDubMod build 2550/release
Видео
Идентификатор                            : 0
Формат                                   : MPEG-4 Visual
Профиль формата                          : Advanced Simple@L5
Параметр BVOP формата                    : 2
Параметр QPel формата                    : Нет
Параметр GMC формата                     : Без точки перехода
Параметр матрицы формата                 : Default (MPEG)
Идентификатор кодека                     : XVID
Идентификатор кодека/Подсказка           : XviD
Продолжительность                        : 1 ч. 16 м.
Битрейт                                  : 2095 Кбит/сек
Ширина                                   : 720 пикселей
Высота                                   : 400 пикселей
Соотношение сторон                       : 16:9
Частота кадров                           : 25,000 кадров/сек
Цветовое пространство                    : YUV
Субдискретизация насыщенности            : 4:2:0
Битовая глубина                          : 8 бит
Тип развёртки                            : Прогрессивная
Метод сжатия                             : С потерями
Бит/(Пиксели*Кадры)                      : 0.291
Размер потока                            : 1,12 Гбайт (82%)
Библиотека кодирования                   : XviD 73
Аудио
Идентификатор                            : 1
Формат                                   : AC-3
Формат/Информация                        : Audio Coding 3
Расширение режима                        : CM (complete main)
Параметр Endianness формата              : Big
Идентификатор кодека                     : 2000
Продолжительность                        : 1 ч. 16 м.
Вид битрейта                             : Постоянный
Битрейт                                  : 448 Кбит/сек
Каналы                                   : 6 каналов
Расположение каналов                     : Front: L C R, Side: L R, LFE
Частота                                  : 48,0 КГц
Битовая глубина                          : 16 бит
Метод сжатия                             : С потерями
Размер потока                            : 246 Мбайт (18%)
Выравнивание                             : Разделение по промежуткам
Продолжительность промежутка             : 40  мс. (1,00 видеокадр)
Время предзагрузки промежутка            : 500  мс.

Скриншоты





Показать сообщения:    

Текущее время: 11-Дек 18:55

Часовой пояс: UTC + 11


Вы не можете начинать темы
Вы не можете отвечать на сообщения
Вы не можете редактировать свои сообщения
Вы не можете удалять свои сообщения
Вы не можете голосовать в опросах
Вы не можете прикреплять файлы к сообщениям
Вы не можете скачивать файлы

Сайт не предоставляет электронные версии произведений, а занимается лишь коллекционированием и каталогизацией ссылок, присылаемых и публикуемых на форуме нашими читателями. Если вы являетесь правообладателем какого-либо представленного материала и не желаете, чтобы ссылка на него находилась в нашем каталоге, свяжитесь с нами, и мы незамедлительно удалим ее. Файлы для обмена на трекере предоставлены пользователями сайта, и администрация не несет ответственности за их содержание. Просьба не заливать файлы, защищенные авторскими правами, а также файлы нелегального содержания!