+100


 

[Цитировать]

- Захват (2014) SATRip (серии 1-8 из 8) -Производство: Россия / ООО "Эпик Медиа"
Жанр: Детектив, Криминал
Режиссер: Эльдар Салаватов
Актеры: Владимир Епифанцев, Андрей Мерзликин, Дмитрий Марьянов, Дарья Михайлова, Денис Никифоров, Михаил Гаврилов, Евгений Антропов, Николай Ковбас, Сергей Шнырёв, Елена Панова и др...
Описание:
Вечером, в конце рабочего дня, председателю совета директоров банка Почекаеву звонит неизвестный и сообщает, что одно из отделений его банка в эту минуту захватывают вооруженные грабители. На место преступления прибывают полиция и спецназ. Очень скоро и полиции, и заложникам становится понятно, что речь идет не об обычном ограблении. Гораздо больше, чем деньги, командира захватчиков интересует некие документы, содержащиеся в ячейке Почекаева.

Возраст: 12+ (зрителям, достигшим 12 лет)
Продолжительность: ~ 00:50:00 серия
Качество видео: SATRip
Видео: Xvid, 720x400 (16:9), ~1272 Kbps
Аудио: AC3, 2 ch, 192 Kbps, CBR

MediaInfo

Общее
Полное имя : D:\Мои фильмы\Zahvat_1-8iz8_2016_XviD_SATRip\Zahvat_1_SATRip.avi
Формат : AVI
Формат/Информация : Audio Video Interleave
Размер файла : 556 Мбайт
Продолжительность : 52 м. 43 с.
Общий поток : 1474 Кбит/сек
Программа кодирования : VirtualDubMod 1.5.10.3 (build 2550/release)
Библиотека кодирования : VirtualDub build 35491/release
Видео
Идентификатор : 0
Формат : MPEG-4 Visual
Профиль формата : Advanced Simple@L5
Параметр BVOP формата : 2
Параметр QPel формата : Нет
Параметр GMC формата : Без точки перехода
Параметр матрицы формата : Default (H.263)
Идентификатор кодека : XVID
Идентификатор кодека/Подсказка : XviD
Продолжительность : 52 м. 43 с.
Битрейт : 1272 Кбит/сек
Ширина : 720 пикселей
Высота : 400 пикселей
Соотношение сторон : 16:9
Частота кадров : 25,000 кадров/сек
Цветовое пространство : YUV
Субдискретизация насыщенности : 4:2:0
Битовая глубина : 8 бит
Тип развёртки : Прогрессивная
Метод сжатия : С потерями
Бит/(Пиксели*Кадры) : 0.177
Размер потока : 480 Мбайт (86%)
Библиотека кодирования : XviD 67
Аудио
Идентификатор : 1
Формат : AC-3
Формат/Информация : Audio Coding 3
Расширение режима : CM (complete main)
Параметр Endianness формата : Big
Идентификатор кодека : 2000
Продолжительность : 52 м. 42 с.
Вид битрейта : Постоянный
Битрейт : 192 Кбит/сек
Каналы : 2 канала
Расположение каналов : Front: L R
Частота : 48,0 КГц
Частота кадров : 31,250 кадров/сек (1536 spf)
Битовая глубина : 16 бит
Метод сжатия : С потерями
Размер потока : 72,4 Мбайт (13%)
Выравнивание : Соединение по промежуткам
Продолжительность промежутка : 40 мс. (1,00 видеокадр)
Время предзагрузки промежутка : 512 мс.
Скриншоты:




Показать сообщения:    

Текущее время: 22-Фев 12:30

Часовой пояс: UTC + 11


Вы не можете начинать темы
Вы не можете отвечать на сообщения
Вы не можете редактировать свои сообщения
Вы не можете удалять свои сообщения
Вы не можете голосовать в опросах
Вы не можете прикреплять файлы к сообщениям
Вы не можете скачивать файлы

Сайт не предоставляет электронные версии произведений, а занимается лишь коллекционированием и каталогизацией ссылок, присылаемых и публикуемых на форуме нашими читателями. Если вы являетесь правообладателем какого-либо представленного материала и не желаете, чтобы ссылка на него находилась в нашем каталоге, свяжитесь с нами, и мы незамедлительно удалим ее. Файлы для обмена на трекере предоставлены пользователями сайта, и администрация не несет ответственности за их содержание. Просьба не заливать файлы, защищенные авторскими правами, а также файлы нелегального содержания!