+100


Топ за 24 часа
 
 

[Цитировать]

- Большой собачий побег / Ozzy (2016) WEB-DL [H.264/1080p]-Производство: Канада, Испания
Жанр: Приключения
Режиссер: Альберто Родригез, Начо Ла Каза
Актёры: Гильермо Ромеро, Дэни Ровира, Хосе Мота, Мишель Хеннер, Карлос Аресес, Фернандо Техеро, Эктор Кантолья, Хуан Фернандес, Эльза Патаки
Описание:
Жизнь беспечного бигля Оззи переворачивается с лап на голову, когда, отправляясь в отпуск, семья Мартинов отдает его в элитный спа-отель для собак. Но хозяева не могли и представить, что это всего лишь ловушка, а их любимец окажется в настоящей собачьей тюрьме. Чтобы прорваться через супер-систему охраны и злющих сторожевых псов, Оззи вместе с такими же бедолагами, как он, должен будет спланировать самый хитроумный и дерзкий побег в истории.

Возраст: 0+ (для любой зрительской аудитории)
Рейтинг MPAA: G (нет возрастных ограничений)
Дата мировой премьеры: 14 октября 2016
Дата российской премьеры: 3 ноября 2016, «Вольга»
Продолжительность: 01:27:06
Качество видео: WEB-DL 1080p
Перевод: Дублированный (iTunes)
Вид субтитров: Отсутствуют
Видео: AVC/H.264, 1920x1080, ~4998 Kbps
Аудио: AC3, 6 ch, 384 Kbps - Русский (Dub, iTunes)
Аудио: AC3, 6 ch, 384 Kbps - Украинский (Dub, iTunes)

MediaInfo

General
Unique ID : 197474924626515683757161713946909857744 (0x9490497CCA08368FA6EBEE6E7B5DD7D0)
Complete name : E:\Bolshoy.sobachiy.pobeg.2016.1080p.WEB-DL.mkv
Format : Matroska
Format version : Version 2
File size : 3.58 GiB
Duration : 1h 27mn
Overall bit rate : 5 883 Kbps
Movie name : Ozzy (2016) - Release for HDCLUB
Encoded date : UTC 2016-11-30 19:40:38
Writing application : mkvmerge v3.4.0 ('Rapunzel') built on May 15 2010 09:38:20
Writing library : libebml v0.8.0 + libmatroska v0.9.0
Video
ID : 1
Format : AVC
Format/Info : Advanced Video Codec
Format profile : High@L4
Format settings, CABAC : Yes
Format settings, ReFrames : 4 frames
Codec ID : V_MPEG4/ISO/AVC
Duration : 1h 27mn
Bit rate : 4 998 Kbps
Width : 1 920 pixels
Height : 1 080 pixels
Display aspect ratio : 16:9
Frame rate mode : Constant
Frame rate : 25.000 fps
Color space : YUV
Chroma subsampling : 4:2:0
Bit depth : 8 bits
Scan type : Progressive
Bits/(Pixel*Frame) : 0.096
Stream size : 3.04 GiB (85%)
Title : Ozzy (2016) - Release for HDCLUB
Language : English
Default : Yes
Forced : No
Color range : Limited
Color primaries : BT.709
Transfer characteristics : BT.709
Matrix coefficients : BT.709
Audio #1
ID : 2
Format : AC-3
Format/Info : Audio Coding 3
Mode extension : CM (complete main)
Format settings, Endianness : Big
Codec ID : A_AC3
Duration : 1h 27mn
Bit rate mode : Constant
Bit rate : 384 Kbps
Channel(s) : 6 channels
Channel positions : Front: L C R, Side: L R, LFE
Sampling rate : 48.0 KHz
Compression mode : Lossy
Stream size : 239 MiB (7%)
Title : AC3 5.1 @ 384 kbps - DUB, iTunes
Language : Russian
Default : Yes
Forced : No
Audio #2
ID : 3
Format : AC-3
Format/Info : Audio Coding 3
Mode extension : CM (complete main)
Format settings, Endianness : Big
Codec ID : A_AC3
Duration : 1h 27mn
Bit rate mode : Constant
Bit rate : 384 Kbps
Channel(s) : 6 channels
Channel positions : Front: L C R, Side: L R, LFE
Sampling rate : 48.0 KHz
Compression mode : Lossy
Stream size : 239 MiB (7%)
Title : AC3 5.1 @ 384 kbps - DUB, iTunes
Language : Ukrainian
Default : No
Forced : No
Скриншоты:




Показать сообщения:    

Текущее время: 24-Мар 11:06

Часовой пояс: UTC + 11


Вы не можете начинать темы
Вы не можете отвечать на сообщения
Вы не можете редактировать свои сообщения
Вы не можете удалять свои сообщения
Вы не можете голосовать в опросах
Вы не можете прикреплять файлы к сообщениям
Вы не можете скачивать файлы

Сайт не предоставляет электронные версии произведений, а занимается лишь коллекционированием и каталогизацией ссылок, присылаемых и публикуемых на форуме нашими читателями. Если вы являетесь правообладателем какого-либо представленного материала и не желаете, чтобы ссылка на него находилась в нашем каталоге, свяжитесь с нами, и мы незамедлительно удалим ее. Файлы для обмена на трекере предоставлены пользователями сайта, и администрация не несет ответственности за их содержание. Просьба не заливать файлы, защищенные авторскими правами, а также файлы нелегального содержания!