+100


 

[Цитировать]

- Научи меня жить (2016) WEB-DLRip (сезон 1, серии 1-12 из 12) -Производство: Россия / Компания Amalgama Studio
Жанр: детектив
Режиссер: Валентин Донсков
Актеры: Кирилл Кяро, Анна Попова, Алексей Барабаш, Елена Подкаминская, Игорь Скляр, Юрий Цурило, Андрей Казаков, Василий Мищенко, Елена Яковлева, Андрей Фролов.
Описание:
В городе обнаруживают труп неизвестной женщины — ритуальный характер преступления предполагает появление в городе маньяка. В помощь штатному следователю Рите Сторожевой к расследованию привлекают профессионального психиатра Илью Лаврова, в прошлом уже участвовавшего в поимке маньяков. Личные мотивы и чувства, болезненные события прошлого, неспособность выйти на открытый контакт — всё это лишает расследование объективности и порождает череду драматических ошибок.

Дата российской премьеры: 23 ноября 2016
Продолжительность: ~00:50:00 серия
Качество видео: WEB-DLRip
Видео: Xvid, 720x400, 25.000 fps, ~1474 Kbps
Аудио: AC3, 2 ch, 192 Kbps, CBR

MediaInfo

Общее
Полное имя : D:\Фильмы\Мои раздачи\Научи меня жить\Научи меня жить.2016.WEB-DLRip\01.Nauchi.menia.zyt.2016.WEB-DLRip.avi
Формат : AVI
Формат/Информация : Audio Video Interleave
Размер файла : 595 Мбайт
Продолжительность : 49 м.
Общий поток : 1676 Кбит/сек
Программа кодирования : VirtualDubMod 1.5.10.3 | (build 2550/release)
Библиотека кодирования : VirtualDubMod build 2550/release
Видео
Идентификатор : 0
Формат : MPEG-4 Visual
Профиль формата : Advanced Simple@L5
Параметр BVOP формата : 1
Параметр QPel формата : Нет
Параметр GMC формата : Без точки перехода
Параметр матрицы формата : Выборочная
Идентификатор кодека : XVID
Идентификатор кодека/Подсказка : XviD
Продолжительность : 49 м.
Битрейт : 1474 Кбит/сек
Ширина : 720 пикселей
Высота : 400 пикселей
Соотношение сторон : 16:9
Частота кадров : 25,000 кадров/сек
Цветовое пространство : YUV
Субдискретизация насыщенности : 4:2:0
Битовая глубина : 8 бит
Тип развёртки : Прогрессивная
Метод сжатия : С потерями
Бит/(Пиксели*Кадры) : 0.205
Размер потока : 524 Мбайт (88%)
Библиотека кодирования : XviD 73
Аудио
Идентификатор : 1
Формат : AC-3
Формат/Информация : Audio Coding 3
Расширение режима : CM (complete main)
Параметр Endianness формата : Big
Идентификатор кодека : 2000
Продолжительность : 49 м.
Вид битрейта : Постоянный
Битрейт : 192 Кбит/сек
Каналы : 2 канала
Расположение каналов : Front: L R
Частота : 48,0 КГц
Битовая глубина : 16 бит
Метод сжатия : С потерями
Размер потока : 68,2 Мбайт (11%)
Выравнивание : Разделение по промежуткам
Продолжительность промежутка : 40 мс. (1,00 видеокадр)
Время предзагрузки промежутка : 500 мс.
Скриншоты:




Показать сообщения:    

Текущее время: 19-Янв 07:22

Часовой пояс: UTC + 11


Вы не можете начинать темы
Вы не можете отвечать на сообщения
Вы не можете редактировать свои сообщения
Вы не можете удалять свои сообщения
Вы не можете голосовать в опросах
Вы не можете прикреплять файлы к сообщениям
Вы не можете скачивать файлы

Сайт не предоставляет электронные версии произведений, а занимается лишь коллекционированием и каталогизацией ссылок, присылаемых и публикуемых на форуме нашими читателями. Если вы являетесь правообладателем какого-либо представленного материала и не желаете, чтобы ссылка на него находилась в нашем каталоге, свяжитесь с нами, и мы незамедлительно удалим ее. Файлы для обмена на трекере предоставлены пользователями сайта, и администрация не несет ответственности за их содержание. Просьба не заливать файлы, защищенные авторскими правами, а также файлы нелегального содержания!