+100


 

[Цитировать]

- Кубо. Легенда о самурае / Kubo and the Two Strings (2016) BDRip 3D [H.264/1080p] [Вертикальная анаморфная стереопара]-Производство: США
Жанр: Фентези, Приключения
Режиссер: Трэвис Найт
Актёры: Арт Паркинсон, Шарлиз Терон, Рэйф Файнс, Джордж Такей, Кэри-Хироюки Тагава, Бренда Ваккаро, Руни Мара, Мэттью МакКонахи, Мейрик Мерфи, Мина Нодзи.
Описание:
Кубо — наследник великого рода, но когда возвратились духи прошлого, жаждущие мести, на его защиту отважилась встать лишь странная парочка хранителей. И теперь для Кубо единственный шанс на спасение — найти магические доспехи отца, легендарного самурая.

Возраст: 6+ (зрителям, достигшим 6 лет)
Рейтинг MPAA: PG (рекомендуется присутствие родителей)
Дата мировой премьеры: 13 августа 2016
Дата российской премьеры: 20 октября 2016, «UPI»
Продолжительность: 01:41:36
Качество видео: BDRip 3D
Перевод: Многоголосый закадровый, профессиональный
Вид субтитров: Отсутствуют
Видео: AVC/H.264, 1920x804, ~12399 Kbps
Аудио: DTS, 6 ch, 1509 Kbps

MediaInfo

General
Unique ID : 195339201496986770537627937005374730185 (0x92F4F63516C8D142B8A112FCBAB2EFC9)
Complete name : D:\Downlowds\Video\KUBO_TWO_STRINGS\KUBO_TWO_STRINGS.mkv
Format : Matroska
Format version : Version 2
File size : 9.87 GiB
Duration : 1h 41mn
Overall bit rate : 13.9 Mbps
Movie name : KUBO_TWO_STRINGS
Encoded date : UTC 2016-11-30 06:41:20
Writing application : DVDFab 9.2.4.4
Writing library : libebml v0.7.8 + libmatroska v0.8.1
Video
ID : 1
Format : AVC
Format/Info : Advanced Video Codec
Format profile : High@L4.1
Format settings, CABAC : Yes
Format settings, ReFrames : 2 frames
Codec ID : V_MPEG4/ISO/AVC
Duration : 1h 41mn
Bit rate : 12.4 Mbps
Width : 1 920 pixels
Height : 804 pixels
Display aspect ratio : 2.40:1
Frame rate mode : Constant
Frame rate : 23.976 fps
Color space : YUV
Chroma subsampling : 4:2:0
Bit depth : 8 bits
Scan type : Progressive
Bits/(Pixel*Frame) : 0.335
Stream size : 8.60 GiB (87%)
Writing library : x264 core 142
Encoding settings : cabac=1 / ref=1 / deblock=1:-1:-1 / analyse=0x3:0 / me=hex / subme=5 / psy=0 / mixed_ref=0 / me_range=16 / chroma_me=1 / trellis=0 / 8x8dct=1 / cqm=0 / deadzone=21,11 / fast_pskip=0 / chroma_qp_offset=0 / threads=8 / lookahead_threads=2 / sliced_threads=0 / nr=0 / decimate=1 / interlaced=0 / bluray_compat=0 / constrained_intra=0 / bframes=2 / b_pyramid=0 / b_adapt=1 / b_bias=0 / direct=1 / weightb=0 / open_gop=0 / weightp=0 / keyint=24 / keyint_min=13 / scenecut=40 / intra_refresh=0 / rc=abr / mbtree=0 / bitrate=12399 / ratetol=1.0 / qcomp=0.60 / qpmin=0 / qpmax=69 / qpstep=4 / ip_ratio=1.40 / pb_ratio=1.30 / aq=1:1.00
Default : Yes
Forced : No
Color range : Limited
Color primaries : BT.709
Transfer characteristics : BT.709
Matrix coefficients : BT.709
Audio
ID : 2
Format : DTS
Format/Info : Digital Theater Systems
Mode : 16
Format settings, Endianness : Big
Codec ID : A_DTS
Duration : 1h 41mn
Bit rate mode : Constant
Bit rate : 1 509 Kbps
Channel(s) : 6 channels
Channel positions : Front: L C R, Side: L R, LFE
Sampling rate : 48.0 KHz
Bit depth : 24 bits
Compression mode : Lossy
Stream size : 1.07 GiB (11%)
Language : Russian
Default : Yes
Forced : No
Скриншоты:




Показать сообщения:    

Текущее время: 21-Авг 02:22

Часовой пояс: UTC + 11


Вы не можете начинать темы
Вы не можете отвечать на сообщения
Вы не можете редактировать свои сообщения
Вы не можете удалять свои сообщения
Вы не можете голосовать в опросах
Вы не можете прикреплять файлы к сообщениям
Вы не можете скачивать файлы

Сайт не предоставляет электронные версии произведений, а занимается лишь коллекционированием и каталогизацией ссылок, присылаемых и публикуемых на форуме нашими читателями. Если вы являетесь правообладателем какого-либо представленного материала и не желаете, чтобы ссылка на него находилась в нашем каталоге, свяжитесь с нами, и мы незамедлительно удалим ее. Файлы для обмена на трекере предоставлены пользователями сайта, и администрация не несет ответственности за их содержание. Просьба не заливать файлы, защищенные авторскими правами, а также файлы нелегального содержания!