+100


Топ за 24 часа
 
 

[Цитировать]

-Пластмассовая королева (2016) HDTVRip (серии 1-2 из 2)-Производство: Россия / "Мега Продакшн"
Жанр: Мелодрама
Режиссер: Сергей Гиргель
Актеры: Ольга Дятловская, Дарья Пармененкова, Елизавета Фалей, Алиса Признякова, Ефим Петрунин, Иван Николаев, Марина Москвина, Сергей Власов, Наталья Капитонова, Руслан Чернецкий ...
Описание: Маше Громовой 17 лет, она «пластмассовая принцесса» в небольшом провинциальном городке, поскольку отец является владельцем крупного завода по производству пластика. Ей завидуют подруги Света и Анжела. При этом сама Маша влюблена в простого парня Лешу. Родители героини обманом разлучают ее с любимым и отправляют учиться в столицу. Однако после своего возвращения Маша понимает, что ее чувства к Леше не прошли…

Возраст: 12+ (зрителям, достигшим 12 лет)
Продолжительность: ~ 01:30:00 серия
Качество видео: HDTVRip
Видео: MPEG4, XviD, 720x400 (16:9), 25.000 fps, 1 908 Kbps (0.265 bit/pixel)
Аудио: AC-3, 48.0 KHz, 2 ch, 192 Kbps, CBR

MediaInfo

Общее
Полное имя : C:\NNM\Пластмассовая королева\Plastmassovaya koroleva 2016 HDTVRip\Пластмассовая королева 01.avi
Формат : AVI
Формат/Информация : Audio Video Interleave
Размер файла : 1,37 Гбайт
Продолжительность : 1 ч. 32 м.
Общий поток : 2110 Кбит/сек
Программа кодирования : VirtualDubMod 1.5.10.3 | www.virtualdub-fr.org || (build 2550/release)
Библиотека кодирования : VirtualDubMod build 2550/release
Видео
Идентификатор : 0
Формат : MPEG-4 Visual
Профиль формата : Advanced Simple@L5
Параметр BVOP формата : 1
Параметр QPel формата : Нет
Параметр GMC формата : Без точки перехода
Параметр матрицы формата : Выборочная
Идентификатор кодека : XVID
Идентификатор кодека/Подсказка : XviD
Продолжительность : 1 ч. 32 м.
Битрейт : 1908 Кбит/сек
Ширина : 720 пикселей
Высота : 400 пикселей
Соотношение сторон : 16:9
Частота кадров : 25,000 кадров/сек
Цветовое пространство : YUV
Субдискретизация насыщенности : 4:2:0
Битовая глубина : 8 бит
Тип развёртки : Прогрессивная
Метод сжатия : С потерями
Бит/(Пиксели*Кадры) : 0.265
Размер потока : 1,24 Гбайт (90%)
Библиотека кодирования : XviD 73
Аудио
Идентификатор : 1
Формат : AC-3
Формат/Информация : Audio Coding 3
Расширение режима : CM (complete main)
Параметр Endianness формата : Big
Идентификатор кодека : 2000
Продолжительность : 1 ч. 32 м.
Вид битрейта : Постоянный
Битрейт : 192 Кбит/сек
Каналы : 2 канала
Расположение каналов : Front: L R
Частота : 48,0 КГц
Частота кадров : 31,250 кадров/сек (1536 spf)
Метод сжатия : С потерями
Размер потока : 127 Мбайт (9%)
Выравнивание : Разделение по промежуткам
Продолжительность промежутка : 40 мс. (1,00 видеокадр)
Время предзагрузки промежутка : 500 мс.
Скриншоты:




Показать сообщения:    

Текущее время: 24-Мар 23:11

Часовой пояс: UTC + 11


Вы не можете начинать темы
Вы не можете отвечать на сообщения
Вы не можете редактировать свои сообщения
Вы не можете удалять свои сообщения
Вы не можете голосовать в опросах
Вы не можете прикреплять файлы к сообщениям
Вы не можете скачивать файлы

Сайт не предоставляет электронные версии произведений, а занимается лишь коллекционированием и каталогизацией ссылок, присылаемых и публикуемых на форуме нашими читателями. Если вы являетесь правообладателем какого-либо представленного материала и не желаете, чтобы ссылка на него находилась в нашем каталоге, свяжитесь с нами, и мы незамедлительно удалим ее. Файлы для обмена на трекере предоставлены пользователями сайта, и администрация не несет ответственности за их содержание. Просьба не заливать файлы, защищенные авторскими правами, а также файлы нелегального содержания!