+100


Топ за 24 часа
 
 

[Цитировать]

-Дом на холодном ключе (2016) SATRip (серии 1-4 из 4)-Производство: Россия, Украина / Кинокомпания "FILM.UA"
Жанр: Детектив, мелодрама
Режиссер: Тарас Дударь
Актеры: Марина Коняшкина, Павел Баршак, Виктория Скицкая, Оксана Архангельская, Влад Никитюк, Александр Крыжановский, Сергей Чекерес, Елизавета Зайцева, Дмитрий Лаленков ...
Описание: Арина Суботина, всю жизнь считавшая себя сиротой, неожиданно получает известие от женщины, представившейся ее матерью. Якобы та находится при смерти и хочет оставить ей наследство. Чтобы вывести самозванку на чистую воду, Арина отправляется в город Марежино, где живет ее «мать». Здесь же она знакомится с экспертом генетической лаборатории, куда обращается за экспертизой – Ильей. Между молодыми людьми вспыхивает симпатия. Но вскоре Арина начинает понимать, что очень мешает кому-то в этом городе и этот кто-то сделает все, чтобы она уехала, так и не узнав правду о своей «матери» и других тайнах, окружающих Арину с первой же минуты пребывания в Марежино.

Продолжительность: ~ 00:46:00 серия
Качество видео: SATRip
Перевод: Не требуется (язык русский)
Язык субтитров: Украинский
Вид субтитров: Вшитые
Видео: MPEG4, XviD, 720x400 (16:9), 25.000 fps, 1 800 Kbps (0.250 bit/pixel)
Аудио: MP3, 48.0 KHz, 1 ch, 192 Kbps, CBR

MediaInfo

Общее
Полное имя : C:\NNM\Дом на холодном ключе\Dom na holodnom kluche 2016 SATRip\Dom 01.avi
Формат : AVI
Формат/Информация : Audio Video Interleave
Размер файла : 661 Мбайт
Продолжительность : 46 м.
Общий поток : 2002 Кбит/сек
Программа кодирования : VirtualDubMod 1.5.10.3 | www.virtualdub-fr.org || (build 2550/release)
Библиотека кодирования : VirtualDubMod build 2550/release
Видео
Идентификатор : 0
Формат : MPEG-4 Visual
Профиль формата : Advanced Simple@L5
Параметр BVOP формата : 2
Параметр QPel формата : Нет
Параметр GMC формата : Без точки перехода
Параметр матрицы формата : Default (H.263)
Идентификатор кодека : XVID
Идентификатор кодека/Подсказка : XviD
Продолжительность : 46 м.
Битрейт : 1800 Кбит/сек
Ширина : 720 пикселей
Высота : 400 пикселей
Соотношение сторон : 16:9
Частота кадров : 25,000 кадров/сек
Цветовое пространство : YUV
Субдискретизация насыщенности : 4:2:0
Битовая глубина : 8 бит
Тип развёртки : Прогрессивная
Метод сжатия : С потерями
Бит/(Пиксели*Кадры) : 0.250
Размер потока : 594 Мбайт (90%)
Библиотека кодирования : XviD 1.2.1 (UTC 2008-12-04)
Аудио
Идентификатор : 1
Формат : MPEG Audio
Версия формата : Version 1
Профиль формата : Layer 3
Идентификатор кодека : 55
Идентификатор кодека/Подсказка : MP3
Продолжительность : 46 м.
Вид битрейта : Постоянный
Битрейт : 192 Кбит/сек
Каналы : 1 канал
Частота : 48,0 КГц
Метод сжатия : С потерями
Размер потока : 63,4 Мбайт (10%)
Выравнивание : Соединение по промежуткам
Продолжительность промежутка : 40 мс. (1,00 видеокадр)
Время предзагрузки промежутка : 504 мс.
Библиотека кодирования : LAME3.99r
Настройки программы : -m m -V 4 -q 9 -lowpass 20.5 -b 192
Скриншоты:




Показать сообщения:    

Текущее время: 21-Окт 21:27

Часовой пояс: UTC + 11


Вы не можете начинать темы
Вы не можете отвечать на сообщения
Вы не можете редактировать свои сообщения
Вы не можете удалять свои сообщения
Вы не можете голосовать в опросах
Вы не можете прикреплять файлы к сообщениям
Вы не можете скачивать файлы

Сайт не предоставляет электронные версии произведений, а занимается лишь коллекционированием и каталогизацией ссылок, присылаемых и публикуемых на форуме нашими читателями. Если вы являетесь правообладателем какого-либо представленного материала и не желаете, чтобы ссылка на него находилась в нашем каталоге, свяжитесь с нами, и мы незамедлительно удалим ее. Файлы для обмена на трекере предоставлены пользователями сайта, и администрация не несет ответственности за их содержание. Просьба не заливать файлы, защищенные авторскими правами, а также файлы нелегального содержания!