+100


Топ за 24 часа
 
 

[Цитировать]

-Письмо Надежды (2016) WEB-DLRip (серии 1-4 из 4)-Производство: Украина / Кинокомпания "УПС"
Жанр: Мелодрама
Режиссер: Александр Итыгилов мл.
Актеры: Глафира Тарханова, Константин Стрельников, Валентина Ищенко, Анна Кошмал, Ирина Мирошниченко, Мария Тарасова ...
Описание: Потеряв кормильца-зятя, Анна Федоровна принимает решение оставить только одну из двух новорожденных внучек, а от дочери правду скрыть. Вере, маме Маши и Тани, сделали кесарево, и она все еще находится под наркозом. Уговорив свою подругу, директора роддома, Анна Федоровна подписывает от Вериного имени отказ от Тани. Измученная угрызениями совести, Анна Федоровна умирает, так и не сказав правду. Но ее подруга-соучастник пишет Вере письмо с признанием...

Продолжительность: ~ 00:48:00 серия
Качество видео: WEB-DLRip
Видео: MPEG4, XviD, 720x400 (16:9), 25.000 fps, 1 549 Kbps (0.215 bit/pixel)
Аудио: AC-3, 44.1 KHz, 2 ch, 192 Kbps, CBR

MediaInfo

Общее
Полное имя : C:\NNM\Письмо Надежды\Pisjmo nadezhdy 2016 WEB-DLRip\Pisjmo 01.avi
Формат : AVI
Формат/Информация : Audio Video Interleave
Размер файла : 600 Мбайт
Продолжительность : 47 м.
Общий поток : 1751 Кбит/сек
Программа кодирования : VirtualDubMod 1.5.10.3 | www.virtualdub-fr.org || (build 2550/release)
Библиотека кодирования : VirtualDubMod build 2550/release
Видео
Идентификатор : 0
Формат : MPEG-4 Visual
Профиль формата : Advanced Simple@L5
Параметр BVOP формата : 2
Параметр QPel формата : Нет
Параметр GMC формата : Без точки перехода
Параметр матрицы формата : Default (MPEG)
Идентификатор кодека : XVID
Идентификатор кодека/Подсказка : XviD
Продолжительность : 47 м.
Битрейт : 1549 Кбит/сек
Ширина : 720 пикселей
Высота : 400 пикселей
Соотношение сторон : 16:9
Частота кадров : 25,000 кадров/сек
Цветовое пространство : YUV
Субдискретизация насыщенности : 4:2:0
Битовая глубина : 8 бит
Тип развёртки : Прогрессивная
Метод сжатия : С потерями
Бит/(Пиксели*Кадры) : 0.215
Размер потока : 531 Мбайт (88%)
Библиотека кодирования : XviD 1.2.1 (UTC 2008-12-04)
Аудио
Идентификатор : 1
Формат : AC-3
Формат/Информация : Audio Coding 3
Расширение режима : CM (complete main)
Параметр Endianness формата : Big
Идентификатор кодека : 2000
Продолжительность : 47 м.
Вид битрейта : Постоянный
Битрейт : 192 Кбит/сек
Каналы : 2 канала
Расположение каналов : Front: L R
Частота : 44,1 КГц
Частота кадров : 28,711 кадров/сек (1536 spf)
Метод сжатия : С потерями
Размер потока : 65,8 Мбайт (11%)
Выравнивание : Разделение по промежуткам
Продолжительность промежутка : 40 мс. (1,00 видеокадр)
Время предзагрузки промежутка : 500 мс.
Скриншоты:




Показать сообщения:    

Текущее время: 19-Окт 00:02

Часовой пояс: UTC + 11


Вы не можете начинать темы
Вы не можете отвечать на сообщения
Вы не можете редактировать свои сообщения
Вы не можете удалять свои сообщения
Вы не можете голосовать в опросах
Вы не можете прикреплять файлы к сообщениям
Вы не можете скачивать файлы

Сайт не предоставляет электронные версии произведений, а занимается лишь коллекционированием и каталогизацией ссылок, присылаемых и публикуемых на форуме нашими читателями. Если вы являетесь правообладателем какого-либо представленного материала и не желаете, чтобы ссылка на него находилась в нашем каталоге, свяжитесь с нами, и мы незамедлительно удалим ее. Файлы для обмена на трекере предоставлены пользователями сайта, и администрация не несет ответственности за их содержание. Просьба не заливать файлы, защищенные авторскими правами, а также файлы нелегального содержания!