+100


Топ за 24 часа
 
 

[Цитировать]

-Каменное сердце (2016) WEB-DL (серии 1-4 из 4)-Производство: Россия / Кинокомпания "Марс Медиа Энтертеймент"
Жанр: Детектив, мелодрама
Режиссер: Александр Аравин
Актеры: Екатерина Волкова (I), Владимир Кошевой, Саша Вельнер, Екатерина Долгова, Наталья Гриншпун, Марта Дроздова, Ирина Бякова, Антон Афанасьев, Александр Андриенко ...
Описание: Галина возглавляет редакцию крупной газеты. Пережив тяжелый развод, она перестает верить в существование любви, и в ее жизни остается только работа. Но когда ее издание публикует сенсационное расследование о махинациях бизнесмена Вячеслава Андреева, карьера тоже может вот-вот рухнуть: один из источников информации оказывается непроверенным, и Андреев подает иск о клевете. Чтобы избежать суда и спасти репутацию, Галина решает найти компромат на бизнесмена. Она отправляется в деревню, чтобы разыскать важного свидетеля - врача Михаила Леонтьева...

Возраст: 12+ (зрителям, достигшим 12 лет)
Продолжительность: ~ 00:47:00 серия
Качество видео: WEB-DL (1080p-LQ)
Перевод: Не требуется (язык русский)
Видео: AVC, 1920x1080 (16:9), 25.000 fps, 2 020 Kbps (0.039 bit/pixel)
Аудио: AC-3, 44.1 KHz, 2 ch, 192 Kbps, CBR

MediaInfo

Общее
Уникальный идентификатор : 176957468515286091191766071684437296670 (0x8520C4CCC703752752074322FBDAC61E)
Полное имя : C:\NNM\Каменное сердце\Kamennoe serdce 2016 WEB-DL (1080p-LQ)\Kamennoe serdce 03.mkv
Формат : Matroska
Версия формата : Version 4 / Version 2
Размер файла : 756 Мбайт
Продолжительность : 46 м.
Общий поток : 2257 Кбит/сек
Программа кодирования : Lavf56.36.100
Библиотека кодирования : Lavf56.36.100 / Lavf56.36.100
Видео
Идентификатор : 1
Формат : AVC
Формат/Информация : Advanced Video Codec
Профиль формата : High@L4
Параметр CABAC формата : Да
Параметр ReFrames формата : 3 кадра
Идентификатор кодека : V_MPEG4/ISO/AVC
Продолжительность : 46 м.
Битрейт : 2020 Кбит/сек
Ширина : 1920 пикселей
Высота : 1080 пикселей
Соотношение сторон : 16:9
Режим частоты кадров : Постоянный
Частота кадров : 25,000 кадров/сек
Цветовое пространство : YUV
Субдискретизация насыщенности : 4:2:0
Битовая глубина : 8 бит
Тип развёртки : Прогрессивная
Бит/(Пиксели*Кадры) : 0.039
Размер потока : 676 Мбайт (90%)
Default : Да
Forced : Нет
Цветовой диапазон : Limited
Основные цвета : BT.709
Характеристики трансфера : BT.709
Коэффициенты матрицы : BT.709
Аудио
Идентификатор : 2
Формат : AC-3
Формат/Информация : Audio Coding 3
Расширение режима : CM (complete main)
Параметр Endianness формата : Big
Идентификатор кодека : A_AC3
Продолжительность : 46 м.
Вид битрейта : Постоянный
Битрейт : 192 Кбит/сек
Каналы : 2 канала
Расположение каналов : Front: L R
Частота : 44,1 КГц
Частота кадров : 28,711 кадров/сек (1536 spf)
Метод сжатия : С потерями
Размер потока : 64,3 Мбайт (9%)
Язык : unknown
Default : Да
Forced : Нет
Скриншоты:




Показать сообщения:    

Текущее время: 24-Фев 19:02

Часовой пояс: UTC + 11


Вы не можете начинать темы
Вы не можете отвечать на сообщения
Вы не можете редактировать свои сообщения
Вы не можете удалять свои сообщения
Вы не можете голосовать в опросах
Вы не можете прикреплять файлы к сообщениям
Вы не можете скачивать файлы

Сайт не предоставляет электронные версии произведений, а занимается лишь коллекционированием и каталогизацией ссылок, присылаемых и публикуемых на форуме нашими читателями. Если вы являетесь правообладателем какого-либо представленного материала и не желаете, чтобы ссылка на него находилась в нашем каталоге, свяжитесь с нами, и мы незамедлительно удалим ее. Файлы для обмена на трекере предоставлены пользователями сайта, и администрация не несет ответственности за их содержание. Просьба не заливать файлы, защищенные авторскими правами, а также файлы нелегального содержания!