+100


Топ за 24 часа
 
 

[Цитировать]

- Три лани на алмазной тропе (2016) SATRip [H.264] (серии 1-4 из 4) -Производство: Россия / "Телемастер","PRIOR","Green-Film"
Жанр: Детектив, Драма
Режиссер: Вячеслав Лавров
Актеры: Алла Юганова, Юлия Такшина, Екатерина Копанова, Александр Макогон, Нодар Джанелидзе, Никита Плащевский, Алексей Мышинский, Андрей Чуманов, Ольга Красковская, Самвел Мужикян, Роман Жилкин, Полина Воронова, Александр Майоров, Юрий Уткин, Мария Одегова, Сергей Шелгунов, Александр Глебов
Описание:
Подруги Катя , Жанна и Ирина снова попадают в переплёт. На этот раз во время передачи кассеты с записью открытия выставки ведущему программы Ирина находит убитого телеоператора. Девушке приходится не только самой скрываться от киллера, но и найти ответ на очень важный вопрос: что делала на выставке её лучшая подруга Катерина?..

Премьера на тв: 19 ноября 2016 (ТВЦ)
Продолжительность: ~ 00:43:00 серия
Качество видео: SATRip
Видео: AVC/H.264, 720x400, ~1500 Кбит/сек
Аудио: AC3, 192 Кбит/сек,2 канала, CBR

MediaInfo

Общее
Уникальный идентификатор : 206183496553682274005113002266826705587 (0x9B1D7F3BBA3FF95582C303C323390AB3)
Полное имя : K:\Три лани на алмазной тропе\01 серия_Три лани на алмазной тропе_rip by_Aleksan55.mkv
Формат : Matroska
Версия формата : Version 2
Размер файла : 531 Мбайт
Продолжительность : 43 м.
Общий поток : 1694 Кбит/сек
Дата кодирования : UTC 2016-11-19 16:08:22
Программа кодирования : mkvmerge v7.8.0 ('River Man') 32bit built on Apr 3 2015 12:11:22
Библиотека кодирования : libebml v1.3.1 + libmatroska v1.4.2
Видео
Идентификатор : 1
Формат : AVC
Формат/Информация : Advanced Video Codec
Профиль формата : High@L3.1
Параметр CABAC формата : Да
Параметр ReFrames формата : 12 кадров
Идентификатор кодека : V_MPEG4/ISO/AVC
Продолжительность : 43 м.
Битрейт : 1500 Кбит/сек
Ширина : 720 пикселей
Высота : 400 пикселей
Соотношение сторон : 16:9
Режим частоты кадров : Постоянный
Частота кадров : 25,000 кадров/сек
Цветовое пространство : YUV
Субдискретизация насыщенности : 4:2:0
Битовая глубина : 8 бит
Тип развёртки : Прогрессивная
Бит/(Пиксели*Кадры) : 0.208
Размер потока : 460 Мбайт (87%)
Библиотека кодирования : x264 core 148 r2638 7599210
Настройки программы : cabac=1 / ref=12 / deblock=1:-1:-1 / analyse=0x3:0x133 / me=umh / subme=9 / psy=1 / psy_rd=1.00:0.15 / mixed_ref=0 / me_range=32 / chroma_me=1 / trellis=2 / 8x8dct=1 / cqm=0 / deadzone=21,11 / fast_pskip=0 / chroma_qp_offset=-3 / threads=2 / lookahead_threads=3 / sliced_threads=0 / nr=0 / decimate=0 / interlaced=0 / bluray_compat=0 / constrained_intra=0 / bframes=12 / b_pyramid=2 / b_adapt=1 / b_bias=0 / direct=3 / weightb=1 / open_gop=0 / weightp=2 / keyint=250 / keyint_min=25 / scenecut=40 / intra_refresh=0 / rc_lookahead=60 / rc=2pass / mbtree=1 / bitrate=1500 / ratetol=1.0 / qcomp=0.80 / qpmin=0 / qpmax=40 / qpstep=4 / cplxblur=20.0 / qblur=0.5 / ip_ratio=1.40 / aq=1:1.20
Default : Да
Forced : Нет
Цветовой диапазон : Limited
Основные цвета : BT.601 PAL
Характеристики трансфера : BT.470 System B, BT.470 System G
Коэффициенты матрицы : BT.601
Аудио
Идентификатор : 2
Формат : AC-3
Формат/Информация : Audio Coding 3
Расширение режима : CM (complete main)
Параметр Endianness формата : Big
Идентификатор кодека : A_AC3
Продолжительность : 43 м.
Вид битрейта : Постоянный
Битрейт : 192 Кбит/сек
Каналы : 2 канала
Расположение каналов : Front: L R
Частота : 48,0 КГц
Метод сжатия : С потерями
Размер потока : 60,1 Мбайт (11%)
Default : Да
Forced : Нет
Скриншоты:




Показать сообщения:    

Текущее время: 30-Апр 10:25

Часовой пояс: UTC + 11


Вы не можете начинать темы
Вы не можете отвечать на сообщения
Вы не можете редактировать свои сообщения
Вы не можете удалять свои сообщения
Вы не можете голосовать в опросах
Вы не можете прикреплять файлы к сообщениям
Вы не можете скачивать файлы

Сайт не предоставляет электронные версии произведений, а занимается лишь коллекционированием и каталогизацией ссылок, присылаемых и публикуемых на форуме нашими читателями. Если вы являетесь правообладателем какого-либо представленного материала и не желаете, чтобы ссылка на него находилась в нашем каталоге, свяжитесь с нами, и мы незамедлительно удалим ее. Файлы для обмена на трекере предоставлены пользователями сайта, и администрация не несет ответственности за их содержание. Просьба не заливать файлы, защищенные авторскими правами, а также файлы нелегального содержания!