+100


 

[Цитировать]

-Запретная любовь (2016) SATRip (серии 1-12 из 12)-Производство: Россия, Украина, ProTV
Жанр: Детектив, драма, мелодрама
Режиссер: Игорь Забара
Актеры: Ольга Гришина, Алика Смехова, Дмитрий Мухин, Эдуард Трухменёв, Кирилл Дыцевич, Анатолий Кот, Юлия Такшина, Алексей Череватенко, Евгений Ефремов (II), Елена Турбал ...
Описание: Героиня Ольги Гришиной, беременная Катя, чуть не попадает под колеса дорогого джипа. Ее доставляют в роддом в бессознательном состоянии, а когда молодая женщина приходит в себя, врачи сообщают, что младенец умер. Катерина отказывается верить страшному известию. Чтобы хоть немного помочь горю Кати, ей предлагают стать няней в богатой семье, и девушка соглашается. Из нее получается прекрасная няня: она души не чает в ребенке. Единственная проблема: Катя утверждает, что на самом деле – она мать малыша! И уверяет, что ее ребенок не погиб, а его подменили в роддоме.

Возраст: 16+ (зрителям, достигшим 16 лет)
Дата мировой премьеры: 14 ноября 2016
Продолжительность: ~ 00:47:00 серия
Качество видео: SATRip
Перевод: Не требуется (язык русский)
Язык субтитров: Украинский
Вид субтитров: Вшитые
Видео: MPEG4, XviD, 720x400 (16:9), 25.000 fps, 1 578 Kbps (0.219 bit/pixel)
Аудио: AC-3, 48.0 KHz, 2 ch, 192 Kbps, CBR

MediaInfo

Общее
Полное имя : C:\NNM\Запретная любовь\Zapretnaya liubovj 2016 SATRip\Zapretnaya liubovj 01.avi
Формат : AVI
Формат/Информация : Audio Video Interleave
Размер файла : 600 Мбайт
Продолжительность : 47 м.
Общий поток : 1780 Кбит/сек
Программа кодирования : VirtualDubModRus 1.5.10.2 (build 2542/release)
Библиотека кодирования : VirtualDubMod build 2542/release
Видео
Идентификатор : 0
Формат : MPEG-4 Visual
Профиль формата : Advanced Simple@L5
Параметр BVOP формата : 1
Параметр QPel формата : Нет
Параметр GMC формата : Без точки перехода
Параметр матрицы формата : Выборочная
Идентификатор кодека : XVID
Идентификатор кодека/Подсказка : XviD
Продолжительность : 47 м.
Битрейт : 1578 Кбит/сек
Ширина : 720 пикселей
Высота : 400 пикселей
Соотношение сторон : 16:9
Частота кадров : 25,000 кадров/сек
Цветовое пространство : YUV
Субдискретизация насыщенности : 4:2:0
Битовая глубина : 8 бит
Тип развёртки : Прогрессивная
Метод сжатия : С потерями
Бит/(Пиксели*Кадры) : 0.219
Размер потока : 532 Мбайт (89%)
Библиотека кодирования : XviD 73
Аудио
Идентификатор : 1
Формат : AC-3
Формат/Информация : Audio Coding 3
Расширение режима : CM (complete main)
Параметр Endianness формата : Big
Идентификатор кодека : 2000
Продолжительность : 47 м.
Вид битрейта : Постоянный
Битрейт : 192 Кбит/сек
Каналы : 2 канала
Расположение каналов : Front: L R
Частота : 48,0 КГц
Частота кадров : 31,250 кадров/сек (1536 spf)
Метод сжатия : С потерями
Размер потока : 64,8 Мбайт (11%)
Выравнивание : Разделение по промежуткам
Продолжительность промежутка : 40 мс. (1,00 видеокадр)
Время предзагрузки промежутка : 500 мс.
Скриншоты:




Показать сообщения:    

Текущее время: 23-Июн 21:13

Часовой пояс: UTC + 11


Вы не можете начинать темы
Вы не можете отвечать на сообщения
Вы не можете редактировать свои сообщения
Вы не можете удалять свои сообщения
Вы не можете голосовать в опросах
Вы не можете прикреплять файлы к сообщениям
Вы не можете скачивать файлы

Сайт не предоставляет электронные версии произведений, а занимается лишь коллекционированием и каталогизацией ссылок, присылаемых и публикуемых на форуме нашими читателями. Если вы являетесь правообладателем какого-либо представленного материала и не желаете, чтобы ссылка на него находилась в нашем каталоге, свяжитесь с нами, и мы незамедлительно удалим ее. Файлы для обмена на трекере предоставлены пользователями сайта, и администрация не несет ответственности за их содержание. Просьба не заливать файлы, защищенные авторскими правами, а также файлы нелегального содержания!