+100


Топ за 24 часа
 
 

[Цитировать]

-Ромео истекает кровью / Romeo Is Bleeding (1993) HDTVRip- Год выпуска: 1993
Жанр: Триллер, Драма, Криминал
Описание фильма:
Офицер полиции Джек продает мафии информацию об охраняемых им людях, которые проходят по программе защиты свидетелей. Однажды он знакомится с безжалостным, коварным и обольстительным киллером по имени Мона.
Мона принимает участие в убийстве полицейских, охранявших одного из свидетелей, подставленных Джеком. Но, несмотря ни на что, Джека неудержимо влечет к Моне. И он получает сразу три предложения. Одно от ФБР - охранять Мону, второе от гангстеров - убрать ее, ну а сама Мона делает Джеку третье, которое совершенно исключает два первых...

Режиссер: Питер Медак / Peter Medak
Актеры: Гари Олдман (Jack), Уоллес Вуд (Waiter), Джульетт Льюис (Sheri), Дэвид Провэл (Scully), Уилл Пэттон (Martie), Джин Кэнфилд (John), Ларри Джошуа (Joey), Майкл Уинкотт (Sal), Лена Улин (Mona), Уильям Дафф-Гриффин (Paddy), Джеймс Кромуэлл (Cage), Пол Батлер (Skouras)
Продолжительность: 01:49:54
Качество видео: HDTVRip
Перевод: Многоголосый закадровый (DVD NTSC), Авторский (Гаврилов)

________________________________
Видеокодек: Xvid
Битрейт видео: ~1513 kbps
Размер кадра: 720x384
Аудио 1: AC3, 2 ch, 192.00 kbps.............Многоголосый закадровый (DVD NTSC)
Аудио 2: AC3, 2 ch, 192.00 kbps.............Авторский (Гаврилов)

MI

Общее
Полное имя : Romeo.Is.Bleeding.1993.HDTVRip.avi
Формат : AVI
Формат/Информация : Audio Video Interleave
Размер файла : 1,47 Гбайт
Продолжительность : 1 ч. 49 м.
Общий поток : 1911 Кбит/сек
Программа кодирования : VirtualDubMod 1.5.10.2 (build 2542/release)
Библиотека кодирования : VirtualDubMod build 2542/release
Видео
Идентификатор : 0
Формат : MPEG-4 Visual
Профиль формата : Advanced Simple@L5
Параметр BVOP формата : 1
Параметр QPel формата : Нет
Параметр GMC формата : Без точки перехода
Параметр матрицы формата : Выборочная
Идентификатор кодека : XVID
Идентификатор кодека/Подсказка : XviD
Продолжительность : 1 ч. 49 м.
Битрейт : 1513 Кбит/сек
Ширина : 720 пикс.
Высота : 384 пикс.
Соотношение сторон : 1,875
Частота кадров : 23,976 кадр/сек
Цветовое пространство : YUV
Подвыборка цветности : 4:2:0
Битовая глубина : 8 бит
Тип развёртки : Прогрессивная
Метод сжатия : С потерями
Бит/(Пиксели*Кадры) : 0.228
Размер потока : 1,16 Гбайт (79%)
Библиотека кодирования : XviD 65
Аудио #1
Идентификатор : 1
Формат : AC-3
Формат/Информация : Audio Coding 3
Расширение режима : CM (complete main)
Идентификатор кодека : 2000
Продолжительность : 1 ч. 49 м.
Вид битрейта : Постоянный
Битрейт : 192 Кбит/сек
Канал(ы) : 2 канала(ов)
Расположение каналов : Front: L R
Частота : 48,0 КГц
Битовая глубина : 16 бит
Метод сжатия : С потерями
Размер потока : 151 Мбайт (10%)
Выравнивание : Разделение по промежуткам
Продолжительность промежутка : 42 мс. (1,00 видеокадр)
Время предзагрузки промежутка : 500 ms
Аудио #2
Идентификатор : 2
Формат : AC-3
Формат/Информация : Audio Coding 3
Расширение режима : CM (complete main)
Идентификатор кодека : 2000
Продолжительность : 1 ч. 49 м.
Вид битрейта : Постоянный
Битрейт : 192 Кбит/сек
Канал(ы) : 2 канала(ов)
Расположение каналов : Front: L R
Частота : 48,0 КГц
Битовая глубина : 16 бит
Метод сжатия : С потерями
Размер потока : 151 Мбайт (10%)
Выравнивание : Разделение по промежуткам
Продолжительность промежутка : 42 мс. (1,00 видеокадр)
Время предзагрузки промежутка : 500 ms
Скриншоты:




Показать сообщения:    

Текущее время: 11-Дек 01:38

Часовой пояс: UTC + 11


Вы не можете начинать темы
Вы не можете отвечать на сообщения
Вы не можете редактировать свои сообщения
Вы не можете удалять свои сообщения
Вы не можете голосовать в опросах
Вы не можете прикреплять файлы к сообщениям
Вы не можете скачивать файлы

Сайт не предоставляет электронные версии произведений, а занимается лишь коллекционированием и каталогизацией ссылок, присылаемых и публикуемых на форуме нашими читателями. Если вы являетесь правообладателем какого-либо представленного материала и не желаете, чтобы ссылка на него находилась в нашем каталоге, свяжитесь с нами, и мы незамедлительно удалим ее. Файлы для обмена на трекере предоставлены пользователями сайта, и администрация не несет ответственности за их содержание. Просьба не заливать файлы, защищенные авторскими правами, а также файлы нелегального содержания!