+100


Топ за 24 часа
 
 

[Цитировать]

- Гражданин Никто (2016) HDTVRip (серии 1-16 из 16) -Производство: Россия, Украина / Продакшн студия "УПС"
Жанр: Детектив, Криминал
Режиссер: Владимир Янковский
Актеры: Иван Оганесян, Ирина Пегова, Антон Макарский, Елена Великанова, Александр Головин, Мария Козакова, Михаил Ефремов, Ольга Ломоносова, Яна Соболевская, Александр Кобзарь и др...
Описание:
Максим Орлов — опытный детектив, который уже несколько лет безуспешно пытается поймать жестокого преступника по кличке Бумажный убийца. Во время одной из операций он получает сильную травму головы и впадает в состояние комы больше чем на 20 лет. Проснувшись, он оказывается уже в другой стране, с другими людьми. Вся его жизнь изменилась: постарели коллеги на работе, любимая девушка замужем за другим, но главное — Бумажный убийца все еще на свободе…

Возраст: 12+ (зрителям, достигшим 12 лет)
Дата российской премьеры: 31 октября 2016
Продолжительность: ~ 00:50:00 серия
Качество видео: HDTVRip
Видео: Xvid, 720x400 (16:9), ~1372 Kbps
Аудио: AC3, 2 ch, 192 Kbps, CBR

MediaInfo

Общее
Полное имя : D:\Мои фильмы\Grazhdanin_Nikto_1-16iz16_2016_XviD_HDTVRip\Grazhdanin_Nikto_01_HDTVRip.avi
Формат : AVI
Формат/Информация : Audio Video Interleave
Размер файла : 556 Мбайт
Продолжительность : 49 м. 20 с.
Общий поток : 1574 Кбит/сек
Программа кодирования : VirtualDubMod 1.5.10.3 (build 2550/release)
Библиотека кодирования : VirtualDub build 35491/release
Видео
Идентификатор : 0
Формат : MPEG-4 Visual
Профиль формата : Advanced Simple@L5
Параметр BVOP формата : 2
Параметр QPel формата : Нет
Параметр GMC формата : Без точки перехода
Параметр матрицы формата : Default (H.263)
Идентификатор кодека : XVID
Идентификатор кодека/Подсказка : XviD
Продолжительность : 49 м. 20 с.
Битрейт : 1372 Кбит/сек
Ширина : 720 пикселей
Высота : 400 пикселей
Соотношение сторон : 16:9
Частота кадров : 25,000 кадров/сек
Цветовое пространство : YUV
Субдискретизация насыщенности : 4:2:0
Битовая глубина : 8 бит
Тип развёртки : Прогрессивная
Метод сжатия : С потерями
Бит/(Пиксели*Кадры) : 0.191
Размер потока : 484 Мбайт (87%)
Библиотека кодирования : XviD 67
Аудио
Идентификатор : 1
Формат : AC-3
Формат/Информация : Audio Coding 3
Расширение режима : CM (complete main)
Параметр Endianness формата : Big
Идентификатор кодека : 2000
Продолжительность : 49 м. 20 с.
Вид битрейта : Постоянный
Битрейт : 192 Кбит/сек
Каналы : 2 канала
Расположение каналов : Front: L R
Частота : 48,0 КГц
Частота кадров : 31,250 кадров/сек (1536 spf)
Битовая глубина : 16 бит
Метод сжатия : С потерями
Размер потока : 67,8 Мбайт (12%)
Выравнивание : Соединение по промежуткам
Продолжительность промежутка : 40 мс. (1,00 видеокадр)
Время предзагрузки промежутка : 512 мс.
Скриншоты:




Показать сообщения:    

Текущее время: 24-Фев 19:02

Часовой пояс: UTC + 11


Вы не можете начинать темы
Вы не можете отвечать на сообщения
Вы не можете редактировать свои сообщения
Вы не можете удалять свои сообщения
Вы не можете голосовать в опросах
Вы не можете прикреплять файлы к сообщениям
Вы не можете скачивать файлы

Сайт не предоставляет электронные версии произведений, а занимается лишь коллекционированием и каталогизацией ссылок, присылаемых и публикуемых на форуме нашими читателями. Если вы являетесь правообладателем какого-либо представленного материала и не желаете, чтобы ссылка на него находилась в нашем каталоге, свяжитесь с нами, и мы незамедлительно удалим ее. Файлы для обмена на трекере предоставлены пользователями сайта, и администрация не несет ответственности за их содержание. Просьба не заливать файлы, защищенные авторскими правами, а также файлы нелегального содержания!