+100


 

[Цитировать]

- Восток-Запад (2016) SATRip (сезон 1,серий 1-24 из 24) -Производство: Россия, Турция, Украина / Star Media
Жанр: Мелодрама
Режиссер: Денис Елеонский
Актеры: Евгения Лоза, Аднан Коч, Яков Кучеревский, Анна Варпаховская, Ольга Лукьяненко, Наталья Кленина, Валерий Легин, Алексей Смолка
Описание:
Когда-то в далекой юности приятельница нагадала Татьяне, что ее ждет благополучный брак и четверо детей. Однако прошли годы, а обещанное счастье к Татьяне так и не приходит. Игорь, ее жених, скупой и меркантильный, а все попытки за 10 лет завести ребенка так и не увенчались успехом. Таня не теряет надежды на то, что услышит заветное слово «мама». Вместе с супругом она отправляется в Стамбул, где попадает на прием к известному репродуктологу Кемалю. Спустя пару недель она узнает о своей беременности и понимает, что отцом будущего малыша может быть вовсе не ее муж.

Возраст: 16+ (зрителям, достигшим 16 лет)
Дата российской премьеры: 17 октября 2016
Продолжительность: ~ 00:48:00 серия
Качество видео: SATRip
Видео: Xvid, 720x368, ~1363 Kbps
Аудио: AC3, 2 ch, 192 Kbps, CBR

MediaInfo

Общее
Полное имя : D:\Мои фильмы\Vostok_Zapad_1-24iz24_2016_XviD_SATRip\Vostok_Zapad_01_SATRip.avi
Формат : AVI
Формат/Информация : Audio Video Interleave
Размер файла : 556 Мбайт
Продолжительность : 49 м. 37 с.
Общий поток : 1565 Кбит/сек
Программа кодирования : VirtualDubModRus 1.5.10.2 (build 2542/release)
Библиотека кодирования : VirtualDub build 35491/release
Видео
Идентификатор : 0
Формат : MPEG-4 Visual
Профиль формата : Advanced Simple@L5
Параметр BVOP формата : 2
Параметр QPel формата : Нет
Параметр GMC формата : Без точки перехода
Параметр матрицы формата : Default (H.263)
Идентификатор кодека : XVID
Идентификатор кодека/Подсказка : XviD
Продолжительность : 49 м. 37 с.
Битрейт : 1363 Кбит/сек
Ширина : 720 пикселей
Высота : 368 пикселей
Соотношение сторон : 1,957
Частота кадров : 25,000 кадров/сек
Цветовое пространство : YUV
Субдискретизация насыщенности : 4:2:0
Битовая глубина : 8 бит
Тип развёртки : Прогрессивная
Метод сжатия : С потерями
Бит/(Пиксели*Кадры) : 0.206
Размер потока : 484 Мбайт (87%)
Библиотека кодирования : XviD 67
Аудио
Идентификатор : 1
Формат : AC-3
Формат/Информация : Audio Coding 3
Расширение режима : CM (complete main)
Параметр Endianness формата : Big
Идентификатор кодека : 2000
Продолжительность : 49 м. 37 с.
Вид битрейта : Постоянный
Битрейт : 192 Кбит/сек
Каналы : 2 канала
Расположение каналов : Front: L R
Частота : 48,0 КГц
Частота кадров : 31,250 кадров/сек (1536 spf)
Битовая глубина : 16 бит
Метод сжатия : С потерями
Размер потока : 68,2 Мбайт (12%)
Выравнивание : Соединение по промежуткам
Продолжительность промежутка : 40 мс. (1,00 видеокадр)
Время предзагрузки промежутка : 512 мс.
Скриншоты:




Показать сообщения:    

Текущее время: 26-Июн 14:44

Часовой пояс: UTC + 11


Вы не можете начинать темы
Вы не можете отвечать на сообщения
Вы не можете редактировать свои сообщения
Вы не можете удалять свои сообщения
Вы не можете голосовать в опросах
Вы не можете прикреплять файлы к сообщениям
Вы не можете скачивать файлы

Сайт не предоставляет электронные версии произведений, а занимается лишь коллекционированием и каталогизацией ссылок, присылаемых и публикуемых на форуме нашими читателями. Если вы являетесь правообладателем какого-либо представленного материала и не желаете, чтобы ссылка на него находилась в нашем каталоге, свяжитесь с нами, и мы незамедлительно удалим ее. Файлы для обмена на трекере предоставлены пользователями сайта, и администрация не несет ответственности за их содержание. Просьба не заливать файлы, защищенные авторскими правами, а также файлы нелегального содержания!