+100


 

[Цитировать]

-Сверхъестественное / Supernatural (2013-2014) WEB-DL [H.264/1080p-LQ] [Сезон 9, серии 1-23 из 23] LostFilm-Год выпуска: 2013-2014
Жанр: Ужасы, Фэнтези, Детектив
Перевод: Многоголосый закадровый, профессиональный
Озвучка / Автор перевода: LostFilm
Вид субтитров: Вшитые отключаемые
Язык субтитров: Русские, английские
Сэмпл
Дата мировой премьеры: 13 сентября 2005
Дата российской премьеры: 18 февраля 2007
Режиссер: Филип Сгриккиа, Джеймс Л. Конуэй, Питер Эллис
Актеры: Джаред Падалеки, Дженсен Эклс, Джим Бивер, Миша Коллинз, Марк Шеппард, Джеффри Дин Морган, Женевьев Падалеки, Синди Сэмпсон, Саманта Феррис, Митч Пиледжи
Описание фильма:
Сериал рассказывает о приключениях братьев Сэма и Дина Винчестеров, которые путешествуют по Соединённым Штатам на чёрном автомобиле Chevrolet Impala 1967 года, расследуют паранормальные явления, многие из которых основаны на американских городских легендах и фольклоре, и сражаются с порождениями зла, такими как демоны и призраки.
Продолжительность: ~ 00:41:00 серия
Качество видео: WEB-DL [1080p]
Видеокодек: MPEG-4 AVC/H.264
Битрейт видео: ~ 5000 Кбит/с
Размер кадра: 1916x1080 (16:9)
Аудио #1: Русский: AC3, 6 ch, 384 Кбит/с
Аудио #2: Английский: AC3, 6 ch, 384 Кбит/с

MediaInfo:

G:\КИНО\Сериалы\Supernatural.S09.1080p.WEB-DL.Rus.Eng.Pulsar83\Supernatural.S09E01.1080.WEB-DL.mkv
General
Unique ID : 237314051906091630722286730814054857829 (0xB289061CEED1E145A3EF998BFEADFC65)
Complete name : G:\КИНО\Сериалы\Supernatural.S09.1080p.WEB-DL.Rus.Eng.Pulsar83\Supernatural.S09E01.1080.WEB-DL.mkv
Format : Matroska
Format version : Version 4 / Version 2
File size : 1.76 GiB
Duration : 42mn 19s
Overall bit rate : 5 958 Kbps
Encoded date : UTC 2013-10-14 19:14:26
Writing application : mkvmerge v6.4.1 ('Omega Point') built on Sep 16 2013 22:05:10
Writing library : libebml v1.3.0 + libmatroska v1.4.1
Video #1
ID : 1
Format : AVC
Format/Info : Advanced Video Codec
Format profile : High@L4.0
Format settings, CABAC : Yes
Format settings, ReFrames : 4 frames
Codec ID : V_MPEG4/ISO/AVC
Duration : 42mn 19s
Bit rate : 5 071 Kbps
Width : 1 916 pixels
Height : 1 080 pixels
Display aspect ratio : 16:9
Frame rate mode : Constant
Frame rate : 23.976 fps
Color space : YUV
Chroma subsampling : 4:2:0
Bit depth : 8 bits
Scan type : Progressive
Bits/(Pixel*Frame) : 0.102
Stream size : 1.50 GiB (85%)
Title : WEB-DL (1080p)
Language : English
Default : Yes
Forced : No
Color primaries : BT.709
Transfer characteristics : BT.709
Matrix coefficients : BT.709
Audio #2
ID : 2
Format : AC-3
Format/Info : Audio Coding 3
Mode extension : CM (complete main)
Format settings, Endianness : Big
Codec ID : A_AC3
Duration : 42mn 19s
Bit rate mode : Constant
Bit rate : 384 Kbps
Channel count : 6 channels
Channel positions : Front: L C R, Side: L R, LFE
Sampling rate : 48.0 KHz
Bit depth : 16 bits
Compression mode : Lossy
Stream size : 116 MiB (6%)
Title : DD 5.1 @ 384 kbps @ LostFilm
Language : Russian
Default : Yes
Forced : No
Audio #3
ID : 3
Format : AC-3
Format/Info : Audio Coding 3
Mode extension : CM (complete main)
Format settings, Endianness : Big
Codec ID : A_AC3
Duration : 42mn 19s
Bit rate mode : Constant
Bit rate : 384 Kbps
Channel count : 6 channels
Channel positions : Front: L C R, Side: L R, LFE
Sampling rate : 48.0 KHz
Bit depth : 16 bits
Compression mode : Lossy
Stream size : 116 MiB (6%)
Title : DD 5.1 @ 384 kbps ENG
Language : English
Default : No
Forced : No
Text #4
ID : 4
Format : UTF-8
Codec ID : S_TEXT/UTF8
Codec ID/Info : UTF-8 Plain Text
Title : Russian @ SRT @ FarGate
Language : Russian
Default : No
Forced : No
Text #5
ID : 5
Format : UTF-8
Codec ID : S_TEXT/UTF8
Codec ID/Info : UTF-8 Plain Text
Title : English @ SRT
Language : English
Default : No
Forced : No
G:\Кино\Сериалы\Supernatural.S09.1080p.WEB-DL.Rus.Eng.Pulsar83\Supernatural.S09E02.1080.WEB-DL.mkv
General
Unique ID : 248274703257837122786272794998749441876 (0xBAC7F7F27CBEE30B889A8E0D3B3EAF54)
Complete name : G:\Кино\Сериалы\Supernatural.S09.1080p.WEB-DL.Rus.Eng.Pulsar83\Supernatural.S09E02.1080.WEB-DL.mkv
Format : Matroska
Format version : Version 4 / Version 2
File size : 1.73 GiB
Duration : 41mn 19s
Overall bit rate : 5 993 Kbps
Encoded date : UTC 2013-10-23 05:02:03
Writing application : mkvmerge v6.4.1 ('Omega Point') built on Sep 16 2013 22:05:10
Writing library : libebml v1.3.0 + libmatroska v1.4.1
Video #1
ID : 1
Format : AVC
Format/Info : Advanced Video Codec
Format profile : High@L4.0
Format settings, CABAC : Yes
Format settings, ReFrames : 4 frames
Codec ID : V_MPEG4/ISO/AVC
Duration : 41mn 19s
Bit rate : 5 106 Kbps
Width : 1 920 pixels
Height : 1 080 pixels
Display aspect ratio : 16:9
Frame rate mode : Constant
Frame rate : 23.976 fps
Color space : YUV
Chroma subsampling : 4:2:0
Bit depth : 8 bits
Scan type : Progressive
Bits/(Pixel*Frame) : 0.103
Stream size : 1.47 GiB (85%)
Title : WEB-DL (1080p)
Language : English
Default : Yes
Forced : No
Color primaries : BT.709
Transfer characteristics : BT.709
Matrix coefficients : BT.709
Audio #2
ID : 2
Format : AC-3
Format/Info : Audio Coding 3
Mode extension : CM (complete main)
Format settings, Endianness : Big
Codec ID : A_AC3
Duration : 41mn 19s
Bit rate mode : Constant
Bit rate : 384 Kbps
Channel count : 6 channels
Channel positions : Front: L C R, Side: L R, LFE
Sampling rate : 44.1 KHz
Bit depth : 16 bits
Compression mode : Lossy
Stream size : 113 MiB (6%)
Title : DD 5.1 @ 384 kbps @ LostFilm
Language : Russian
Default : Yes
Forced : No
Audio #3
ID : 3
Format : AC-3
Format/Info : Audio Coding 3
Mode extension : CM (complete main)
Format settings, Endianness : Big
Codec ID : A_AC3
Duration : 41mn 19s
Bit rate mode : Constant
Bit rate : 384 Kbps
Channel count : 6 channels
Channel positions : Front: L C R, Side: L R, LFE
Sampling rate : 48.0 KHz
Bit depth : 16 bits
Compression mode : Lossy
Stream size : 113 MiB (6%)
Title : DD 5.1 @ 384 kbps ENG
Language : English
Default : No
Forced : No
Text #4
ID : 4
Format : UTF-8
Codec ID : S_TEXT/UTF8
Codec ID/Info : UTF-8 Plain Text
Title : Russian @ SRT @ FarGate
Language : Russian
Default : Yes
Forced : No
Text #5
ID : 5
Format : UTF-8
Codec ID : S_TEXT/UTF8
Codec ID/Info : UTF-8 Plain Text
Title : English @ SRT
Language : English
Default : No
Forced : No
G:\КИНО\Сериалы\Supernatural.S09.1080p.WEB-DL.Rus.Eng.Pulsar83\Supernatural.S09E03.1080.WEB-DL.mkv
General
Unique ID : 186830720717927424699533636330887561228 (0x8C8E49B77F8AD879BF85A19CF3D7C00C)
Complete name : G:\КИНО\Сериалы\Supernatural.S09.1080p.WEB-DL.Rus.Eng.Pulsar83\Supernatural.S09E03.1080.WEB-DL.mkv
Format : Matroska
Format version : Version 4 / Version 2
File size : 1.78 GiB
Duration : 41mn 55s
Overall bit rate : 6 096 Kbps
Encoded date : UTC 2013-10-27 23:05:11
Writing application : mkvmerge v6.4.1 ('Omega Point') built on Sep 16 2013 22:05:10
Writing library : libebml v1.3.0 + libmatroska v1.4.1
Video #1
ID : 1
Format : AVC
Format/Info : Advanced Video Codec
Format profile : High@L4.0
Format settings, CABAC : Yes
Format settings, ReFrames : 4 frames
Codec ID : V_MPEG4/ISO/AVC
Duration : 41mn 55s
Bit rate : 5 206 Kbps
Width : 1 920 pixels
Height : 1 080 pixels
Display aspect ratio : 16:9
Frame rate mode : Constant
Frame rate : 23.976 fps
Color space : YUV
Chroma subsampling : 4:2:0
Bit depth : 8 bits
Scan type : Progressive
Bits/(Pixel*Frame) : 0.105
Stream size : 1.52 GiB (85%)
Title : WEB-DL (1080p)
Language : English
Default : Yes
Forced : No
Color primaries : BT.709
Transfer characteristics : BT.709
Matrix coefficients : BT.709
Audio #2
ID : 2
Format : AC-3
Format/Info : Audio Coding 3
Mode extension : CM (complete main)
Format settings, Endianness : Big
Codec ID : A_AC3
Duration : 41mn 55s
Bit rate mode : Constant
Bit rate : 384 Kbps
Channel count : 6 channels
Channel positions : Front: L C R, Side: L R, LFE
Sampling rate : 48.0 KHz
Bit depth : 16 bits
Compression mode : Lossy
Stream size : 115 MiB (6%)
Title : DD 5.1 @ 384 kbps @ LostFilm
Language : Russian
Default : Yes
Forced : No
Audio #3
ID : 3
Format : AC-3
Format/Info : Audio Coding 3
Mode extension : CM (complete main)
Format settings, Endianness : Big
Codec ID : A_AC3
Duration : 41mn 55s
Bit rate mode : Constant
Bit rate : 384 Kbps
Channel count : 6 channels
Channel positions : Front: L C R, Side: L R, LFE
Sampling rate : 48.0 KHz
Bit depth : 16 bits
Compression mode : Lossy
Stream size : 115 MiB (6%)
Title : DD 5.1 @ 384 kbps ENG
Language : English
Default : No
Forced : No
Text #4
ID : 4
Format : UTF-8
Codec ID : S_TEXT/UTF8
Codec ID/Info : UTF-8 Plain Text
Title : Russian @ SRT @ FarGate
Language : Russian
Default : No
Forced : No
Text #5
ID : 5
Format : UTF-8
Codec ID : S_TEXT/UTF8
Codec ID/Info : UTF-8 Plain Text
Title : English @ SRT
Language : English
Default : No
Forced : No
G:\Кино\Сериалы\Supernatural.S09.1080p.WEB-DL.Rus.Eng.Pulsar83\Supernatural.S09E04.1080.WEB-DL.mkv
General
Unique ID : 212567661360872974874579477437695187366 (0x9FEB0ADC308B75B09EF6A9273554D9A6)
Complete name : G:\Кино\Сериалы\Supernatural.S09.1080p.WEB-DL.Rus.Eng.Pulsar83\Supernatural.S09E04.1080.WEB-DL.mkv
Format : Matroska
Format version : Version 4 / Version 2
File size : 1.69 GiB
Duration : 42mn 28s
Overall bit rate : 5 710 Kbps
Encoded date : UTC 2013-11-03 01:25:40
Writing application : mkvmerge v6.4.1 ('Omega Point') built on Sep 16 2013 22:05:10
Writing library : libebml v1.3.0 + libmatroska v1.4.1
Video #1
ID : 1
Format : AVC
Format/Info : Advanced Video Codec
Format profile : High@L4.0
Format settings, CABAC : Yes
Format settings, ReFrames : 4 frames
Codec ID : V_MPEG4/ISO/AVC
Duration : 42mn 28s
Bit rate : 4 828 Kbps
Width : 1 916 pixels
Height : 1 080 pixels
Display aspect ratio : 16:9
Frame rate mode : Constant
Frame rate : 23.976 fps
Color space : YUV
Chroma subsampling : 4:2:0
Bit depth : 8 bits
Scan type : Progressive
Bits/(Pixel*Frame) : 0.097
Stream size : 1.43 GiB (85%)
Title : WEB-DL (1080p)
Language : English
Default : Yes
Forced : No
Color primaries : BT.709
Transfer characteristics : BT.709
Matrix coefficients : BT.709
Audio #2
ID : 2
Format : AC-3
Format/Info : Audio Coding 3
Mode extension : CM (complete main)
Format settings, Endianness : Big
Codec ID : A_AC3
Duration : 42mn 28s
Bit rate mode : Constant
Bit rate : 384 Kbps
Channel count : 6 channels
Channel positions : Front: L C R, Side: L R, LFE
Sampling rate : 48.0 KHz
Bit depth : 16 bits
Compression mode : Lossy
Stream size : 117 MiB (7%)
Title : DD 5.1 @ 384 kbps @ LostFilm
Language : Russian
Default : Yes
Forced : No
Audio #3
ID : 3
Format : AC-3
Format/Info : Audio Coding 3
Mode extension : CM (complete main)
Format settings, Endianness : Big
Codec ID : A_AC3
Duration : 42mn 28s
Bit rate mode : Constant
Bit rate : 384 Kbps
Channel count : 6 channels
Channel positions : Front: L C R, Side: L R, LFE
Sampling rate : 48.0 KHz
Bit depth : 16 bits
Compression mode : Lossy
Stream size : 117 MiB (7%)
Title : DD 5.1 @ 384 kbps ENG
Language : English
Default : No
Forced : No
Text #4
ID : 4
Format : UTF-8
Codec ID : S_TEXT/UTF8
Codec ID/Info : UTF-8 Plain Text
Title : Russian @ SRT @ FarGate
Language : Russian
Default : No
Forced : No
Text #5
ID : 5
Format : UTF-8
Codec ID : S_TEXT/UTF8
Codec ID/Info : UTF-8 Plain Text
Title : English @ SRT
Language : English
Default : No
Forced : No
G:\КИНО\Сериалы\Supernatural.S09.1080p.WEB-DL.Rus.Eng.Pulsar83\Supernatural.S09E05.1080.WEB-DL.mkv
General
Unique ID : 203659716548181970822898223925929044166 (0x99376F45A6ED264D8375847C4C19E8C6)
Complete name : G:\КИНО\Сериалы\Supernatural.S09.1080p.WEB-DL.Rus.Eng.Pulsar83\Supernatural.S09E05.1080.WEB-DL.mkv
Format : Matroska
Format version : Version 4 / Version 2
File size : 1.70 GiB
Duration : 41mn 38s
Overall bit rate : 5 833 Kbps
Encoded date : UTC 2013-11-09 22:38:37
Writing application : mkvmerge v6.4.1 ('Omega Point') built on Sep 16 2013 22:05:10
Writing library : libebml v1.3.0 + libmatroska v1.4.1
Video #1
ID : 1
Format : AVC
Format/Info : Advanced Video Codec
Format profile : High@L4.0
Format settings, CABAC : Yes
Format settings, ReFrames : 4 frames
Codec ID : V_MPEG4/ISO/AVC
Duration : 41mn 38s
Bit rate : 4 949 Kbps
Width : 1 916 pixels
Height : 1 076 pixels
Display aspect ratio : 16:9
Frame rate mode : Constant
Frame rate : 23.976 fps
Color space : YUV
Chroma subsampling : 4:2:0
Bit depth : 8 bits
Scan type : Progressive
Bits/(Pixel*Frame) : 0.100
Stream size : 1.44 GiB (85%)
Title : WEB-DL (1080p)
Language : English
Default : Yes
Forced : No
Color primaries : BT.709
Transfer characteristics : BT.709
Matrix coefficients : BT.709
Audio #2
ID : 2
Format : AC-3
Format/Info : Audio Coding 3
Mode extension : CM (complete main)
Format settings, Endianness : Big
Codec ID : A_AC3
Duration : 41mn 38s
Bit rate mode : Constant
Bit rate : 384 Kbps
Channel count : 6 channels
Channel positions : Front: L C R, Side: L R, LFE
Sampling rate : 48.0 KHz
Bit depth : 16 bits
Compression mode : Lossy
Stream size : 114 MiB (7%)
Title : DD 5.1 @ 384 kbps @ LostFilm
Language : Russian
Default : Yes
Forced : No
Audio #3
ID : 3
Format : AC-3
Format/Info : Audio Coding 3
Mode extension : CM (complete main)
Format settings, Endianness : Big
Codec ID : A_AC3
Duration : 41mn 38s
Bit rate mode : Constant
Bit rate : 384 Kbps
Channel count : 6 channels
Channel positions : Front: L C R, Side: L R, LFE
Sampling rate : 48.0 KHz
Bit depth : 16 bits
Compression mode : Lossy
Stream size : 114 MiB (7%)
Title : DD 5.1 @ 384 kbps ENG
Language : English
Default : No
Forced : No
Text #4
ID : 4
Format : UTF-8
Codec ID : S_TEXT/UTF8
Codec ID/Info : UTF-8 Plain Text
Title : Russian @ SRT @ FarGate
Language : Russian
Default : No
Forced : No
Text #5
ID : 5
Format : UTF-8
Codec ID : S_TEXT/UTF8
Codec ID/Info : UTF-8 Plain Text
Title : English @ SRT
Language : English
Default : No
Forced : No
G:\КИНО\Сериалы\Supernatural.S09.1080p.WEB-DL.Rus.Eng.Pulsar83\Supernatural.S09E06.1080.WEB-DL.mkv
General
Unique ID : 217960784843414931854313565312874411434 (0xA3F9B8608C52A230BEBBFC34FD3B75AA)
Complete name : G:\КИНО\Сериалы\Supernatural.S09.1080p.WEB-DL.Rus.Eng.Pulsar83\Supernatural.S09E06.1080.WEB-DL.mkv
Format : Matroska
Format version : Version 4 / Version 2
File size : 1.79 GiB
Duration : 42mn 30s
Overall bit rate : 6 012 Kbps
Encoded date : UTC 2013-11-16 23:52:15
Writing application : mkvmerge v6.4.1 ('Omega Point') built on Sep 16 2013 22:05:10
Writing library : libebml v1.3.0 + libmatroska v1.4.1
Video #1
ID : 1
Format : AVC
Format/Info : Advanced Video Codec
Format profile : High@L4.0
Format settings, CABAC : Yes
Format settings, ReFrames : 4 frames
Codec ID : V_MPEG4/ISO/AVC
Duration : 42mn 30s
Bit rate : 5 124 Kbps
Width : 1 916 pixels
Height : 1 076 pixels
Display aspect ratio : 16:9
Frame rate mode : Constant
Frame rate : 23.976 fps
Color space : YUV
Chroma subsampling : 4:2:0
Bit depth : 8 bits
Scan type : Progressive
Bits/(Pixel*Frame) : 0.104
Stream size : 1.52 GiB (85%)
Title : WEB-DL (1080p)
Language : English
Default : Yes
Forced : No
Color primaries : BT.709
Transfer characteristics : BT.709
Matrix coefficients : BT.709
Audio #2
ID : 2
Format : AC-3
Format/Info : Audio Coding 3
Mode extension : CM (complete main)
Format settings, Endianness : Big
Codec ID : A_AC3
Duration : 42mn 30s
Bit rate mode : Constant
Bit rate : 384 Kbps
Channel count : 6 channels
Channel positions : Front: L C R, Side: L R, LFE
Sampling rate : 48.0 KHz
Bit depth : 16 bits
Compression mode : Lossy
Stream size : 117 MiB (6%)
Title : DD 5.1 @ 384 kbps @ LostFilm
Language : Russian
Default : Yes
Forced : No
Audio #3
ID : 3
Format : AC-3
Format/Info : Audio Coding 3
Mode extension : CM (complete main)
Format settings, Endianness : Big
Codec ID : A_AC3
Duration : 42mn 30s
Bit rate mode : Constant
Bit rate : 384 Kbps
Channel count : 6 channels
Channel positions : Front: L C R, Side: L R, LFE
Sampling rate : 48.0 KHz
Bit depth : 16 bits
Compression mode : Lossy
Stream size : 117 MiB (6%)
Title : DD 5.1 @ 384 kbps ENG
Language : English
Default : No
Forced : No
Text #4
ID : 4
Format : UTF-8
Codec ID : S_TEXT/UTF8
Codec ID/Info : UTF-8 Plain Text
Title : Russian @ SRT @ FarGate
Language : Russian
Default : No
Forced : No
Text #5
ID : 5
Format : UTF-8
Codec ID : S_TEXT/UTF8
Codec ID/Info : UTF-8 Plain Text
Title : English @ SRT
Language : English
Default : No
Forced : No
D:\KINO\KINOZAL\FILMS\Сериалы\Supernatural.S09.1080p.WEB-DL.Rus.Eng.Pulsar83\Supernatural.S09E07.1080.WEB-DL.mkv
General
Unique ID : 189490755386352295492420083589218999368 (0x8E8E978D3392D1F1AD9C4C77A5EE9C48)
Complete name : D:\KINO\KINOZAL\FILMS\Сериалы\Supernatural.S09.1080p.WEB-DL.Rus.Eng.Pulsar83\Supernatural.S09E07.1080.WEB-DL.mkv
Format : Matroska
Format version : Version 4 / Version 2
File size : 1.66 GiB
Duration : 42mn 24s
Overall bit rate : 5 601 Kbps
Encoded date : UTC 2013-11-24 21:10:12
Writing application : mkvmerge v6.5.0 ('Isn't she lovely') built on Oct 20 2013 12:50:05
Writing library : libebml v1.3.0 + libmatroska v1.4.1
Video #1
ID : 1
Format : AVC
Format/Info : Advanced Video Codec
Format profile : High@L4.0
Format settings, CABAC : Yes
Format settings, ReFrames : 4 frames
Format settings, GOP : N=1
Codec ID : V_MPEG4/ISO/AVC
Duration : 42mn 24s
Bit rate : 4 721 Kbps
Width : 1 916 pixels
Height : 1 076 pixels
Display aspect ratio : 16:9
Frame rate : 23.976 fps
Color space : YUV
Chroma subsampling : 4:2:0
Bit depth : 8 bits
Scan type : Progressive
Bits/(Pixel*Frame) : 0.096
Stream size : 1.40 GiB (84%)
Title : WEB-DL (1080p)
Language : English
Color primaries : BT.709-5, BT.1361, IEC 61966-2-4, SMPTE RP177
Transfer characteristics : BT.709-5, BT.1361
Matrix coefficients : BT.709-5, BT.1361, IEC 61966-2-4 709, SMPTE RP177
Audio #2
ID : 2
Format : AC-3
Format/Info : Audio Coding 3
Mode extension : CM (complete main)
Codec ID : A_AC3
Duration : 42mn 24s
Bit rate mode : Constant
Bit rate : 384 Kbps
Channel(s) : 6 channels
Channel positions : Front: L C R, Side: L R, LFE
Sampling rate : 48.0 KHz
Bit depth : 16 bits
Compression mode : Lossy
Stream size : 116 MiB (7%)
Title : DD 5.1 @ 384 kbps @ LostFilm
Language : Russian
Audio #3
ID : 3
Format : AC-3
Format/Info : Audio Coding 3
Mode extension : CM (complete main)
Codec ID : A_AC3
Duration : 42mn 24s
Bit rate mode : Constant
Bit rate : 384 Kbps
Channel(s) : 6 channels
Channel positions : Front: L C R, Side: L R, LFE
Sampling rate : 48.0 KHz
Bit depth : 16 bits
Compression mode : Lossy
Stream size : 116 MiB (7%)
Title : DD 5.1 @ 384 kbps ENG
Language : English
Text #4
ID : 4
Format : UTF-8
Codec ID : S_TEXT/UTF8
Codec ID/Info : UTF-8 Plain Text
Title : Russian @ SRT @ FarGate
Language : Russian
Text #5
ID : 5
Format : UTF-8
Codec ID : S_TEXT/UTF8
Codec ID/Info : UTF-8 Plain Text
Title : English @ SRT
Language : English
G:\КИНО\Сериалы\Supernatural.S09.1080p.WEB-DL.Rus.Eng.Pulsar83\Supernatural.S09E08.1080.WEB-DL.mkv
General
Unique ID : 187158218766060745134774208200826842276 (0x8CCD5C9E016BAFC18BC69966A2726CA4)
Complete name : G:\КИНО\Сериалы\Supernatural.S09.1080p.WEB-DL.Rus.Eng.Pulsar83\Supernatural.S09E08.1080.WEB-DL.mkv
Format : Matroska
Format version : Version 4 / Version 2
File size : 1.67 GiB
Duration : 42mn 27s
Overall bit rate : 5 621 Kbps
Encoded date : UTC 2013-11-30 19:32:46
Writing application : mkvmerge v6.4.1 ('Omega Point') built on Sep 16 2013 22:05:10
Writing library : libebml v1.3.0 + libmatroska v1.4.1
Video #1
ID : 1
Format : AVC
Format/Info : Advanced Video Codec
Format profile : High@L4.0
Format settings, CABAC : Yes
Format settings, ReFrames : 4 frames
Format settings, GOP : N=1
Codec ID : V_MPEG4/ISO/AVC
Duration : 42mn 27s
Bit rate : 4 741 Kbps
Width : 1 912 pixels
Height : 1 072 pixels
Display aspect ratio : 16:9
Frame rate mode : Constant
Frame rate : 23.976 fps
Color space : YUV
Chroma subsampling : 4:2:0
Bit depth : 8 bits
Scan type : Progressive
Bits/(Pixel*Frame) : 0.096
Stream size : 1.41 GiB (84%)
Title : WEB-DL (1080p)
Language : English
Default : Yes
Forced : No
Color primaries : BT.709
Transfer characteristics : BT.709
Matrix coefficients : BT.709
Audio #2
ID : 2
Format : AC-3
Format/Info : Audio Coding 3
Mode extension : CM (complete main)
Format settings, Endianness : Big
Codec ID : A_AC3
Duration : 42mn 27s
Bit rate mode : Constant
Bit rate : 384 Kbps
Channel count : 6 channels
Channel positions : Front: L C R, Side: L R, LFE
Sampling rate : 48.0 KHz
Bit depth : 16 bits
Compression mode : Lossy
Stream size : 117 MiB (7%)
Title : DD 5.1 @ 384 kbps @ LostFilm
Language : Russian
Default : Yes
Forced : No
Audio #3
ID : 3
Format : AC-3
Format/Info : Audio Coding 3
Mode extension : CM (complete main)
Format settings, Endianness : Big
Codec ID : A_AC3
Duration : 42mn 27s
Bit rate mode : Constant
Bit rate : 384 Kbps
Channel count : 6 channels
Channel positions : Front: L C R, Side: L R, LFE
Sampling rate : 48.0 KHz
Bit depth : 16 bits
Compression mode : Lossy
Stream size : 117 MiB (7%)
Title : DD 5.1 @ 384 kbps ENG
Language : English
Default : No
Forced : No
Text #4
ID : 4
Format : UTF-8
Codec ID : S_TEXT/UTF8
Codec ID/Info : UTF-8 Plain Text
Title : Russian @ SRT @ FarGate
Language : Russian
Default : No
Forced : No
Text #5
ID : 5
Format : UTF-8
Codec ID : S_TEXT/UTF8
Codec ID/Info : UTF-8 Plain Text
Title : English @ SRT
Language : English
Default : No
Forced : No
G:\КИНО\Сериалы\Supernatural.S09.1080p.WEB-DL.Rus.Eng.Pulsar83\Supernatural.S09E09.1080.WEB-DL.mkv
General
Unique ID : 214803502668026659410601439895975038761 (0xA199A658F31234E3A0792EA37F5F0F29)
Complete name : G:\КИНО\Сериалы\Supernatural.S09.1080p.WEB-DL.Rus.Eng.Pulsar83\Supernatural.S09E09.1080.WEB-DL.mkv
Format : Matroska
Format version : Version 4 / Version 2
File size : 1.73 GiB
Duration : 42mn 21s
Overall bit rate : 5 852 Kbps
Encoded date : UTC 2013-12-07 22:19:09
Writing application : mkvmerge v6.6.0 ('The Edge Of The In Between') built on Dec 1 2013 17:55:00
Writing library : libebml v1.3.0 + libmatroska v1.4.1
Video #1
ID : 1
Format : AVC
Format/Info : Advanced Video Codec
Format profile : High@L4.0
Format settings, CABAC : Yes
Format settings, ReFrames : 4 frames
Format settings, GOP : N=1
Codec ID : V_MPEG4/ISO/AVC
Duration : 42mn 22s
Bit rate : 4 967 Kbps
Width : 1 916 pixels
Height : 1 076 pixels
Display aspect ratio : 16:9
Frame rate mode : Constant
Frame rate : 23.976 fps
Color space : YUV
Chroma subsampling : 4:2:0
Bit depth : 8 bits
Scan type : Progressive
Bits/(Pixel*Frame) : 0.100
Stream size : 1.47 GiB (85%)
Title : WEB-DL (1080p)
Language : English
Default : Yes
Forced : No
Color primaries : BT.709
Transfer characteristics : BT.709
Matrix coefficients : BT.709
Audio #2
ID : 2
Format : AC-3
Format/Info : Audio Coding 3
Mode extension : CM (complete main)
Format settings, Endianness : Big
Codec ID : A_AC3
Duration : 42mn 21s
Bit rate mode : Constant
Bit rate : 384 Kbps
Channel count : 6 channels
Channel positions : Front: L C R, Side: L R, LFE
Sampling rate : 48.0 KHz
Bit depth : 16 bits
Compression mode : Lossy
Stream size : 116 MiB (7%)
Title : DD 5.1 @ 384 kbps @ LostFilm
Language : Russian
Default : Yes
Forced : No
Audio #3
ID : 3
Format : AC-3
Format/Info : Audio Coding 3
Mode extension : CM (complete main)
Format settings, Endianness : Big
Codec ID : A_AC3
Duration : 42mn 21s
Bit rate mode : Constant
Bit rate : 384 Kbps
Channel count : 6 channels
Channel positions : Front: L C R, Side: L R, LFE
Sampling rate : 48.0 KHz
Bit depth : 16 bits
Compression mode : Lossy
Stream size : 116 MiB (7%)
Title : DD 5.1 @ 384 kbps ENG
Language : English
Default : No
Forced : No
Text #4
ID : 4
Format : UTF-8
Codec ID : S_TEXT/UTF8
Codec ID/Info : UTF-8 Plain Text
Title : Russian @ SRT @ FarGate
Language : Russian
Default : No
Forced : No
Text #5
ID : 5
Format : UTF-8
Codec ID : S_TEXT/UTF8
Codec ID/Info : UTF-8 Plain Text
Title : English @ SRT
Language : English
Default : No
Forced : No
D:\KINOZAL\SERIALS\Supernatural.S09.1080p.WEB-DL.Rus.Eng.Pulsar83\Supernatural.S09E10.1080.WEB-DL.mkv
General
Unique ID : 187030671994862212177131518766871591373 (0x8CB4CC136C6285EF9A7EE32CEB51B9CD)
Complete name : D:\KINOZAL\SERIALS\Supernatural.S09.1080p.WEB-DL.Rus.Eng.Pulsar83\Supernatural.S09E10.1080.WEB-DL.mkv
Format : Matroska
Format version : Version 4 / Version 2
File size : 1.66 GiB
Duration : 42mn 32s
Overall bit rate : 5 589 Kbps
Encoded date : UTC 2014-01-21 01:18:28
Writing application : mkvmerge v6.3.0 ('You can't stop me!') built on Jun 28 2013 20:09:41
Writing library : libebml v1.3.0 + libmatroska v1.4.0
Video #1
ID : 1
Format : AVC
Format/Info : Advanced Video Codec
Format profile : High@L4.0
Format settings, CABAC : Yes
Format settings, ReFrames : 4 frames
Codec ID : V_MPEG4/ISO/AVC
Duration : 42mn 32s
Bit rate : 4 709 Kbps
Width : 1 916 pixels
Height : 1 076 pixels
Display aspect ratio : 16:9
Frame rate mode : Constant
Frame rate : 23.976 fps
Color space : YUV
Chroma subsampling : 4:2:0
Bit depth : 8 bits
Scan type : Progressive
Bits/(Pixel*Frame) : 0.095
Stream size : 1.40 GiB (84%)
Title : WEB-DL (1080p)
Language : English
Default : Yes
Forced : Yes
Color primaries : BT.709
Transfer characteristics : BT.709
Matrix coefficients : BT.709
Audio #2
ID : 2
Format : AC-3
Format/Info : Audio Coding 3
Mode extension : CM (complete main)
Format settings, Endianness : Big
Codec ID : A_AC3
Duration : 42mn 32s
Bit rate mode : Constant
Bit rate : 384 Kbps
Channel(s) : 6 channels
Channel positions : Front: L C R, Side: L R, LFE
Sampling rate : 48.0 KHz
Bit depth : 16 bits
Compression mode : Lossy
Stream size : 117 MiB (7%)
Title : DD 5.1 @ 384 kbps @ LostFilm
Language : Russian
Default : Yes
Forced : Yes
Audio #3
ID : 3
Format : AC-3
Format/Info : Audio Coding 3
Mode extension : CM (complete main)
Format settings, Endianness : Big
Codec ID : A_AC3
Duration : 42mn 32s
Bit rate mode : Constant
Bit rate : 384 Kbps
Channel(s) : 6 channels
Channel positions : Front: L C R, Side: L R, LFE
Sampling rate : 48.0 KHz
Bit depth : 16 bits
Compression mode : Lossy
Stream size : 117 MiB (7%)
Title : DD 5.1 @ 384 kbps ENG
Language : English
Default : No
Forced : No
Text #4
ID : 4
Format : UTF-8
Codec ID : S_TEXT/UTF8
Codec ID/Info : UTF-8 Plain Text
Title : Russian @ Fargate @ SRT
Language : Russian
Default : No
Forced : No
Text #5
ID : 5
Format : UTF-8
Codec ID : S_TEXT/UTF8
Codec ID/Info : UTF-8 Plain Text
Title : English @ SRT
Language : English
Default : No
Forced : No
E:\Кино\Сериалы\Supernatural.S09.1080p.WEB-DL.Rus.Eng.Pulsar83\Supernatural.S09E11.1080.WEB-DL.mkv
General
Unique ID : 215826019995139193310450245251628130286 (0xA25E94580ECD3CA99124863C29D1DFEE)
Complete name : E:\Кино\Сериалы\Supernatural.S09.1080p.WEB-DL.Rus.Eng.Pulsar83\Supernatural.S09E11.1080.WEB-DL.mkv
Format : Matroska
Format version : Version 4 / Version 2
File size : 1.68 GiB
Duration : 42mn 29s
Overall bit rate : 5 652 Kbps
Encoded date : UTC 2014-01-25 20:57:03
Writing application : mkvmerge v6.7.0 ('Back to the Ground') 64bit built on Jan 8 2014 15:10:52
Writing library : libebml v1.3.0 + libmatroska v1.4.1
Video #1
ID : 1
Format : AVC
Format/Info : Advanced Video Codec
Format profile : High@L4.0
Format settings, CABAC : Yes
Format settings, ReFrames : 4 frames
Format settings, GOP : N=1
Codec ID : V_MPEG4/ISO/AVC
Duration : 42mn 29s
Bit rate : 4 771 Kbps
Width : 1 916 pixels
Height : 1 076 pixels
Display aspect ratio : 16:9
Frame rate mode : Constant
Frame rate : 23.976 fps
Color space : YUV
Chroma subsampling : 4:2:0
Bit depth : 8 bits
Scan type : Progressive
Bits/(Pixel*Frame) : 0.097
Stream size : 1.42 GiB (84%)
Title : WEB-DL (1080p)
Language : English
Default : Yes
Forced : Yes
Color primaries : BT.709
Transfer characteristics : BT.709
Matrix coefficients : BT.709
Audio #2
ID : 2
Format : AC-3
Format/Info : Audio Coding 3
Mode extension : CM (complete main)
Format settings, Endianness : Big
Codec ID : A_AC3
Duration : 42mn 29s
Bit rate mode : Constant
Bit rate : 384 Kbps
Channel count : 6 channels
Channel positions : Front: L C R, Side: L R, LFE
Sampling rate : 48.0 KHz
Bit depth : 16 bits
Compression mode : Lossy
Stream size : 117 MiB (7%)
Title : DD 5.1 @ 384 kbps @ LostFilm
Language : Russian
Default : Yes
Forced : Yes
Audio #3
ID : 3
Format : AC-3
Format/Info : Audio Coding 3
Mode extension : CM (complete main)
Format settings, Endianness : Big
Codec ID : A_AC3
Duration : 42mn 29s
Bit rate mode : Constant
Bit rate : 384 Kbps
Channel count : 6 channels
Channel positions : Front: L C R, Side: L R, LFE
Sampling rate : 48.0 KHz
Bit depth : 16 bits
Compression mode : Lossy
Stream size : 117 MiB (7%)
Title : DD 5.1 @ 384 kbps ENG
Language : English
Default : No
Forced : No
Text #4
ID : 4
Format : UTF-8
Codec ID : S_TEXT/UTF8
Codec ID/Info : UTF-8 Plain Text
Title : Russian @ SRT @ FarGate
Language : Russian
Default : No
Forced : No
Text #5
ID : 5
Format : UTF-8
Codec ID : S_TEXT/UTF8
Codec ID/Info : UTF-8 Plain Text
Title : English @ SRT
Language : English
Default : No
Forced : No
E:\КИНО\Сериалы\Supernatural.S09.1080p.WEB-DL.Rus.Eng.Pulsar83\Supernatural.S09E12.1080.WEB-DL.mkv
General
Unique ID : 251330303472691186929738220268281099878 (0xBD1474AB4F9F08DE8BA770AD7E077666)
Complete name : E:\КИНО\Сериалы\Supernatural.S09.1080p.WEB-DL.Rus.Eng.Pulsar83\Supernatural.S09E12.1080.WEB-DL.mkv
Format : Matroska
Format version : Version 4 / Version 2
File size : 1.66 GiB
Duration : 41mn 25s
Overall bit rate : 5 753 Kbps
Encoded date : UTC 2014-02-03 04:28:10
Writing application : mkvmerge v6.7.0 ('Back to the Ground') 64bit built on Jan 8 2014 15:10:52
Writing library : libebml v1.3.0 + libmatroska v1.4.1
Video #1
ID : 1
Format : AVC
Format/Info : Advanced Video Codec
Format profile : High@L4.0
Format settings, CABAC : Yes
Format settings, ReFrames : 4 frames
Format settings, GOP : N=1
Codec ID : V_MPEG4/ISO/AVC
Duration : 41mn 25s
Bit rate : 4 871 Kbps
Width : 1 916 pixels
Height : 1 076 pixels
Display aspect ratio : 16:9
Frame rate mode : Constant
Frame rate : 23.976 fps
Color space : YUV
Chroma subsampling : 4:2:0
Bit depth : 8 bits
Scan type : Progressive
Bits/(Pixel*Frame) : 0.099
Stream size : 1.41 GiB (85%)
Title : WEB-DL (1080p)
Language : English
Default : Yes
Forced : Yes
Color primaries : BT.709
Transfer characteristics : BT.709
Matrix coefficients : BT.709
Audio #2
ID : 2
Format : AC-3
Format/Info : Audio Coding 3
Mode extension : CM (complete main)
Format settings, Endianness : Big
Codec ID : A_AC3
Duration : 41mn 25s
Bit rate mode : Constant
Bit rate : 384 Kbps
Channel(s) : 6 channels
Channel positions : Front: L C R, Side: L R, LFE
Sampling rate : 48.0 KHz
Bit depth : 16 bits
Compression mode : Lossy
Stream size : 114 MiB (7%)
Title : DD 5.1 @ 384 kbps @ LostFilm
Language : Russian
Default : Yes
Forced : Yes
Audio #3
ID : 3
Format : AC-3
Format/Info : Audio Coding 3
Mode extension : CM (complete main)
Format settings, Endianness : Big
Codec ID : A_AC3
Duration : 41mn 25s
Bit rate mode : Constant
Bit rate : 384 Kbps
Channel(s) : 6 channels
Channel positions : Front: L C R, Side: L R, LFE
Sampling rate : 48.0 KHz
Bit depth : 16 bits
Compression mode : Lossy
Stream size : 114 MiB (7%)
Title : DD 5.1 @ 384 kbps ENG
Language : English
Default : No
Forced : No
Text #4
ID : 4
Format : UTF-8
Codec ID : S_TEXT/UTF8
Codec ID/Info : UTF-8 Plain Text
Title : Russian @ SRT @ FarGate
Language : Russian
Default : No
Forced : No
Text #5
ID : 5
Format : UTF-8
Codec ID : S_TEXT/UTF8
Codec ID/Info : UTF-8 Plain Text
Title : English @ SRT
Language : English
Default : No
Forced : No

Дополнительная информация:

• В первой серии первого сезона когда Дина в полицейском участке спрашивают как его зовут — он говорит «Ньюджент. Тед Ньюджент». Тед Ньюджент — американский гитарист, вокалист, автор песен, продюсер.
Одна из его песен «Strangehold» звучит в первой серии второго сезона.
• Киану Ривзу было предложено сыграть Джона Винчестера.
• Когда создателями сериала решался вопрос о том, на каком автомобиле будут путешествовать братья Винчестеры, первым выбором стал Ford Mustang 1967 года, однако позже было решено, что чёрная Chevrolet Impala будет выглядеть более устрашающей.
• Первоначально на роль Сэма Винчестера был утверждён Дженсен Эклс.
• Первоначально идея сериала была несколько другой. Предполагалось, что главным героем будет газетный репортёр, расследующий загадочные городские легенды и рассказывающий о них в своей колонке. Но затем решили остановиться на сюжете о двух братьях. Главные герои сериала были названы в честь героев романа Джека Керуака «В дороге» — Сэла Пэрэдайза и Дина Мориарти. Однако, автору идеи Эрику Крипке не понравилось имя Сэл, и он решил заменить его на имя Сэм.
• Во время съёмок второго сезона сериала Джаред Падалеки (Сэм Винчестер) сломал руку в результате исполнения одного из трюков.
• Сэм Винчестер младше своего брата Дина на 4 года, Джаред Падалеки младше Дженсена Эклса тоже на 4 года.
• В 18 эпизоде второго сезона под названием «Голливудский Вавилон» Сэм и Дин совершают экскурсию по киностудии, во время которой гид сообщает: «Справа декорации городка, где снимается сериал «Девочки Гилмор» (2000), если повезет, мы даже пообщаемся с актерами». Ирония в том, что Джаред Падалеки, играющий Сэма Винчестера является одним из актеров «Девочек Гилмор».
• Джеффри Дин Морган (Джон Винчестер) старше своего экранного сына Дженсена Эклса (Дин Винчестер) всего на 12 лет.
• В некоторых сериях можно заметить географические и фактические неточности. Это связано с тем, что действие сериала происходит в различных штатах США, тогда как съемки сериала проходят в Ванкувере, Канада.
• Часто в фильме Дин и Сэм представляются под чужими именами. По большей части эти имена принадлежат реально существующим людям или персонажам фильмов. Например, в эпизоде «Мертвец в воде» братья представились как агенты Форд и Хэмилл — фамилии Харрисона Форда и Марка Хэмилла, актёров киноэпопеи «Звёздные войны». А в эпизоде «Ночной кошмар» Дин и Сэм назвались отцами Симмонсом и Фрейли — обе фамилии принадлежат гитаристам американской рок-группы KISS. В эпизоде «Ночной оборотень» на фальшивых удостоверениях братьев написано специальные агенты Хэн Соло (у Сэма) и Джек Райан (у Дина). Хэн Соло — персонаж «Звёздных войн», а Джек Райан — персонаж, созданный писателем Томом Клэнси. Обе эти роли в кино сыграл Харрисон Форд.
• Сайт hellhoundslair, упоминаемый в эпизоде «Адский дом», реально существует и был создан продюсерами сериала в рекламных целях.
• Действие эпизода «Шоссе 666» происходит в штате Миссури, а шоссе U.S. 6, по которому проезжали Сэм и Дин, не пересекает территорию этого штата.
• В эпизоде «Пугало» городок, в котором происходит действие, расположен в штате Индиана. Однако когда Дин ночью возвращается на машине, мимо проезжает поезд с логотипом Канадских национальных железных дорог на одном из вагонов (съёмки сериала проходят в Ванкувере, Канада).
• В эпизоде «Вендиго» утверждается, что действие происходит где-то в районе Большого Каньона, но дело в том, что местность этой области на самом деле очень пустынна, а не покрыта зеленью и деревьями, как показано в фильме.
• На машине Винчестеров номерные знаки Канзаса расположены и спереди, хотя штат Канзас не выпускает передних номерных знаков.
Иногда, обращаясь друг к другу, актёры употребляли свои настоящие имена, а не имена персонажей. Например, в эпизоде «Адский дом» парень за стойкой бара, предлагая Дину выпить, назвал того Дженсен. А в эпизоде «Происхождение» Дин обнаруживает, что бритва, изображённая на картине, раскрыта, а на фотографии нет. Пытаясь привлечь к этому внимание Сэма, он обращается к тому по имени Джаред. Позже, когда фильм вышел на DVD, эти ошибки были устранены.
• В эпизоде «Кровь мертвеца» Джон Винчестер утверждает, что Сэмюэл Кольт создал свой знаменитый Кольт в 1835 году в ту ночь, когда произошла бойня под Аламо. Однако защитники Аламо погибли 6 марта 1836 года, через год после того, как Кольт изобрёл оружие.
• В эпизоде «Психушка» Дин Винчестер первый раз открывает дневник Джона на развороте с упоминанием о гибели тинейджеров и рисунком вендиго. Второй раз дневник был раскрыт на развороте, где было упоминание только о гибели тинейджеров. Рисунок вендиго оказался на предыдущем листе.
• В эпизоде «Адский дом», когда Эд и Гарри отнимают друг у друга камеру, в кадр попала «часть» одного из операторов.
• В эпизоде «Пугало» когда молодая пара выходит из автомобиля и идет в яблочный сад, фары автомобиля выключены, а шоссе совершенно пустынно, но когда через несколько мгновений они бегут среди деревьев, можно увидеть на заднем плане огни фар.
• В эпизоде «С детьми все в порядке» Сэм утверждает, что подменыши питаются синовиальной жидкостью матерей, пока те не «отбросят коньки». Но тем не менее, следы от укусов у матерей были на шее в районе сонной артерии. Синовиальная жидкость, она же суставная, находится в синовии или, иначе, в суставной сумке, служит она для смазки суставов, питает ткани. Но тогда подменыши должны были прокусывать колено матерей, локти и прочие крупные суставы, чтобы насытиться. Тем более, таким ротовым аппаратом, который имели эти детишки, выкачать суставную жидкость крайне затруднительно.
Изначально планировалось, что Джона Винчестера будут звать Джек.
Первоначально Кэти Кэссиди проходила прослушивание на роль воровки Бэлы Тэлбот, однако в итоге была утверждена в качестве демона-охотника Руби.
• Братьев Дина и Сэма Винчестеров могли сыграть Эштон Кутчер и Джош Хартнетт.
• В серии «Человек с крюком» (Hookman), когда Дин ходит по кладбищу, можно заметить надгробную плиту с надписью на русском: Сергей Валерьевич Петров.
• В первой серии первого сезона Сэм, объясняя Джессике, почему он должен уехать ненадолго, говорит: «Отец отправился на охоту и взял с собой Джима, Джека и Хосе». Сэм перечисляет названия алкогольных напитков (Джим Бим, Джек Дэниелс, Хосе Куэрво), намекая, что отец просто напился.
• В 7 эпизоде 3 сезона Гордон утверждает, что Бэла встречалась с братьями Винчестерами в Массачусетсе. Однако в предыдущем эпизоде, события которого разворачиваются непосредственное перед событиями этой серии, на машине одного из местных жителей были установлены номерные знаки штата Род-Айленд.
• Можно заметить, что в различных сериях (2-4 «Children Shouldn`t Play with Dead Things», 4-11 «Family Remains», 5-11 «Sam, Interrupted») Дин заимствует псевдонимы у сценаристов фильма «Флетч» (1985). В последнем из упомянутых эпизодов, братья представляются фамилиями Стэнвик и Бабар (Алан Стэнвик — герой соответствующего фильма, названный в честь комедийного актера, а Бабар (как слоненок) — вымышленное имя Флетча, которым он представляется в больнице).
Скриншоты:




Показать сообщения:    

Текущее время: 04-Дек 10:54

Часовой пояс: UTC + 11


Вы не можете начинать темы
Вы не можете отвечать на сообщения
Вы не можете редактировать свои сообщения
Вы не можете удалять свои сообщения
Вы не можете голосовать в опросах
Вы не можете прикреплять файлы к сообщениям
Вы не можете скачивать файлы

Сайт не предоставляет электронные версии произведений, а занимается лишь коллекционированием и каталогизацией ссылок, присылаемых и публикуемых на форуме нашими читателями. Если вы являетесь правообладателем какого-либо представленного материала и не желаете, чтобы ссылка на него находилась в нашем каталоге, свяжитесь с нами, и мы незамедлительно удалим ее. Файлы для обмена на трекере предоставлены пользователями сайта, и администрация не несет ответственности за их содержание. Просьба не заливать файлы, защищенные авторскими правами, а также файлы нелегального содержания!