+100


 

[Цитировать]

-Друзья и годы (1966) DVDRip-Год выпуска: 1966
Жанр: Мелодрама
Описание фильма:
Экранизация популярной в 60-х годах пьесы о людях одного поколения, на судьбах которых очень по-разному отразились наиболее важные этапы жизни Страны Советов в период с 30-х годов по 60-е.
Режиссер: Виктор Соколов
Актеры: Александр Граве, Наталья Величко, Юрий Яковлев, Зиновий Высоковский, Нина Веселовская, Олег Анофриев, Владимир Кенигсон, Наталья Антонова, Иван Кудрявцев, Павлик Борискин, Софья Пилявская, Евгений Буренков, Вячеслав Невинный, Игорь Пушкарев
Продолжительность: 02:10:54 (2 части)
Качество видео: DVDRip

Видеокодек: MPEG-4 AVC/H.264
Битрейт видео: ~1813 kbps
Размер кадра: 720x400
Аудиокодек: AAC
Битрейт аудио: 192 KbpsСкриншоты:

MediaInfo:

Полное имя : H:\Наши фильмы\Советские фильмы\Яковлев Юрий Васильевич\Друзья и годы\Друзья и годы.mp4
Формат : MPEG-4
Профиль формата : Base Media / Version 2
Идентификатор кодека : mp42
Размер файла : 1,84 Гбайт
Продолжительность : 2 ч. 10 м.
Режим общего битрейта : Переменный
Общий поток : 2010 Кбит/сек
Дата кодирования : UTC 2014-05-24 20:58:37
Дата пометки : UTC 2014-05-24 20:58:37
Видео
Идентификатор : 2
Формат : AVC
Формат/Информация : Advanced Video Codec
Профиль формата : High@L4.0
Параметр CABAC формата : Да
Параметр ReFrames формата : 2 кадра
Режим смешивания : Container profile=Main@3.0
Идентификатор кодека : avc1
Идентификатор кодека/Информация : Advanced Video Coding
Продолжительность : 2 ч. 10 м.
Вид битрейта : Переменный
Битрейт : 1813 Кбит/сек
Максимальный битрейт : 16,0 Мбит/сек
Ширина : 720 пикселей
Высота : 400 пикселей
Соотношение сторон : 16:9
Соотношение сторон в оригинале : 2,623
Режим частоты кадров : Постоянный
Частота кадров : 25,000 кадров/сек
Цветовое пространство : YUV
Субдискретизация насыщенности : 4:2:0
Битовая глубина : 8 бит
Тип развёртки : Прогрессивная
Бит/(Пиксели*Кадры) : 0.252
Размер потока : 1,66 Гбайт (90%)
Язык : English
Дата кодирования : UTC 2014-05-24 20:58:37
Дата пометки : UTC 2014-05-24 20:58:37
Аудио
Идентификатор : 1
Формат : AAC
Формат/Информация : Advanced Audio Codec
Профиль формата : LC
Идентификатор кодека : 40
Продолжительность : 2 ч. 10 м.
Вид битрейта : Постоянный
Битрейт : 192 Кбит/сек
Каналы : 2 канала
Расположение каналов : Front: L R
Частота : 48,0 КГц
Метод сжатия : С потерями
Размер потока : 180 Мбайт (10%)
Язык : English
Дата кодирования : UTC 2014-05-24 20:58:37
Дата пометки : UTC 2014-05-24 20:58:37

Рецензия, отзыв о фильме

Сценарий Леонид Зорин. Экранизация популярной пьесы шестидесятых годов о людях одного поколения в 2-х частях.
Виктор Соколов создал в «Друзьях и годах» некое предвидение новой эстетики — эстетики картин Алексея Германа. Очевидно именно это позволило 30 лет спустя А. Герману назвать «Друзья и годы» одним из самых замечательных фильмов, виденных им когда-либо.




Показать сообщения:    

Текущее время: 07-Дек 06:50

Часовой пояс: UTC + 11


Вы не можете начинать темы
Вы не можете отвечать на сообщения
Вы не можете редактировать свои сообщения
Вы не можете удалять свои сообщения
Вы не можете голосовать в опросах
Вы не можете прикреплять файлы к сообщениям
Вы не можете скачивать файлы

Сайт не предоставляет электронные версии произведений, а занимается лишь коллекционированием и каталогизацией ссылок, присылаемых и публикуемых на форуме нашими читателями. Если вы являетесь правообладателем какого-либо представленного материала и не желаете, чтобы ссылка на него находилась в нашем каталоге, свяжитесь с нами, и мы незамедлительно удалим ее. Файлы для обмена на трекере предоставлены пользователями сайта, и администрация не несет ответственности за их содержание. Просьба не заливать файлы, защищенные авторскими правами, а также файлы нелегального содержания!