+100


 

[Цитировать]

-Реальная белка / The Nut Job (2014) BDRip [1080p] 3D [Горизонтальная анаморфная стереопара]- Год выпуска: 2014
Производство: Канада, Корея Южная, США / Gulfstream Pictures, Red Rover International
Жанр: Комедия, Приключения, Семейный
Перевод: Дублированный [Лицензия], Многоголосый закадровый (любительский)
Субтитры: Вшитые отключаемые
Язык субтитров: Русский, английский (SDH)
Режиссер: Питер Лепениотис
Продюсер: Хонгджу Ан, Уильям Байндли...
Актеры: Уилл Арнетт, Брендан Фрейзер, Лиам Нисон, Кэтрин Хайгл, Стивен Лэнг, Майя Рудольф, Джефф Данэм, Гэбриел Иглесиас, Сара Гадон, Джеймс Ранкин
Описание фильма:
Пытаясь выжить в городе, неразлучные друзья — белка Злюк и крысёнок Бадди натыкаются на магазин, до краёв набитый их любимым лакомством — орехами. Чувствуя, что «мечты сбываются», приятели планируют величайшее ограбление в истории грызунов. Но тут совсем некстати нарисовались бедные родственники из парка — прямо 13 друзей арахиса! Однако им всем невдомёк, что магазин орехов — лишь прикрытие для банды грабителей, которые намерены вырыть туннель под банк и подменить мешки с деньгами на мешки с теми самыми орехами.

Дата мировой премьеры: 11 января 2014
Дата российской премьеры: 17 апреля 2014, «20 Век Фокс СНГ»
Дата выхода DVD релиза: 27 мая 2014, «Lizard Cinema Trade»
Дата выхода Blu-Ray релиза: 27 мая 2014, «Lizard Cinema Trade»
Продолжительность: 01:25:54
Качество видео: BDRip [1080p]
Видеокодек: MPEG-4 AVC/H.264
Битрейт видео: ~8651 Kbps
Размер кадра: 1920х1080
Аудио #1: Русский: DTS, 48.0 KHz, 6 ch, 1510 Kbps, CBR (дублированный «Blu-Ray RUS»)
Аудио #2: Русский: AC-3, 48.0 KHz, 6 ch, 640 Kbps, CBR (дублированный «Blu-Ray RUS»)
Аудио #3: Русский: DTS, 48.0 KHz, 6 ch, 1510 Kbps, CBR (многоголосый закадровый «Baibako»)
Аудио #4: Английский: DTS, 48.0 KHz, 6 ch, 1510 Kbps, CBR (оригинал)
Сэмпл: Скачать

MediaInfo:

Общее
Уникальный идентификатор : 196428548114850269585195337002626885314 (0x93C6C3246F1FB72CB917E1F560B4A6C2)
Полное имя : D:\Фильмы 3D\Real'naya.Belka.2014.D.BDRip.1080p.3D-HSBS.mkv
Формат : Matroska
Версия формата : Version 4 / Version 2
Размер файла : 8,46 Гбайт
Продолжительность : 1 ч. 25 м.
Общий поток : 14,1 Мбит/сек
Дата кодирования : UTC 2014-05-25 05:25:34
Программа кодирования : mkvmerge v6.9.1 ('Blue Panther') 64bit built on Apr 18 2014 18:23:38
Библиотека кодирования : libebml v1.3.0 + libmatroska v1.4.1
Видео
Идентификатор : 1
Формат : AVC
Формат/Информация : Advanced Video Codec
Профиль формата : High@L4.1
MultiView_Count : 2
MultiView_Layout : Side by Side (left eye first)
Параметр CABAC формата : Да
Параметр ReFrames формата : 2 кадра
Идентификатор кодека : V_MPEG4/ISO/AVC
Продолжительность : 1 ч. 25 м.
Битрейт : 8651 Кбит/сек
Ширина : 1920 пикселей
Высота : 1080 пикселей
Соотношение сторон : 16:9
Режим частоты кадров : Постоянный
Частота кадров : 23,976 кадра/сек
Цветовое пространство : YUV
Субдискретизация насыщенности : 4:2:0
Битовая глубина : 8 бит
Тип развёртки : Прогрессивная
Бит/(Пиксели*Кадры) : 0.174
Размер потока : 5,19 Гбайт (61%)
Библиотека кодирования : x264 core
Язык : English
Default : Да
Forced : Нет
Основные цвета : BT.709
Характеристики трансфера : BT.709
Коэффициенты матрицы : BT.709
Аудио #1
Идентификатор : 2
Формат : DTS
Формат/Информация : Digital Theater Systems
Режим : 16
Параметр Endianness формата : Big
Идентификатор кодека : A_DTS
Продолжительность : 1 ч. 25 м.
Вид битрейта : Постоянный
Битрейт : 1509 Кбит/сек
Каналы : 6 каналов
Расположение каналов : Front: L C R, Side: L R, LFE
Частота : 48,0 КГц
Битовая глубина : 24 бит
Метод сжатия : С потерями
Размер потока : 927 Мбайт (11%)
Язык : Russian
Default : Да
Forced : Нет
Аудио #2
Идентификатор : 3
Формат : AC-3
Формат/Информация : Audio Coding 3
Расширение режима : CM (complete main)
Параметр Endianness формата : Big
Идентификатор кодека : A_AC3
Продолжительность : 1 ч. 25 м.
Вид битрейта : Постоянный
Битрейт : 640 Кбит/сек
Каналы : 6 каналов
Расположение каналов : Front: L C R, Side: L R, LFE
Частота : 48,0 КГц
Битовая глубина : 16 бит
Метод сжатия : С потерями
Размер потока : 393 Мбайт (5%)
Язык : Russian
Default : Нет
Forced : Нет
Аудио #3
Идентификатор : 4
Формат : DTS
Формат/Информация : Digital Theater Systems
Режим : 16
Параметр Endianness формата : Big
Идентификатор кодека : A_DTS
Продолжительность : 1 ч. 25 м.
Вид битрейта : Постоянный
Битрейт : 1509 Кбит/сек
Каналы : 6 каналов
Расположение каналов : Front: L C R, Side: L R, LFE
Частота : 48,0 КГц
Битовая глубина : 16 бит
Метод сжатия : С потерями
Размер потока : 927 Мбайт (11%)
Язык : Russian
Default : Нет
Forced : Нет
Аудио #4
Идентификатор : 5
Формат : DTS
Формат/Информация : Digital Theater Systems
Режим : 16
Параметр Endianness формата : Big
Идентификатор кодека : A_DTS
Продолжительность : 1 ч. 25 м.
Вид битрейта : Постоянный
Битрейт : 1509 Кбит/сек
Каналы : 6 каналов
Расположение каналов : Front: L C R, Side: L R, LFE
Частота : 48,0 КГц
Битовая глубина : 24 бит
Метод сжатия : С потерями
Размер потока : 927 Мбайт (11%)
Язык : English
Default : Нет
Forced : Нет
Текст #1
Идентификатор : 6
Формат : PGS
Режим смешивания : zlib
Идентификатор кодека : S_HDMV/PGS
Идентификатор кодека/Информация : The same subtitle format used on BDs/HD-DVDs
Язык : Russian
Default : Нет
Forced : Нет
Текст #2
Идентификатор : 7
Формат : PGS
Режим смешивания : zlib
Идентификатор кодека : S_HDMV/PGS
Идентификатор кодека/Информация : The same subtitle format used on BDs/HD-DVDs
Язык : English
Default : Нет
Forced : Нет
Меню
00:00:00.000 : en:00:00:00.000
00:02:35.614 : en:00:02:35.614
00:05:24.574 : en:00:05:24.574
00:09:57.430 : en:00:09:57.430
00:14:58.481 : en:00:14:58.481
00:17:30.091 : en:00:17:30.091
00:22:18.837 : en:00:22:18.837
00:27:58.677 : en:00:27:58.677
00:32:01.169 : en:00:32:01.169
00:37:50.435 : en:00:37:50.435
00:40:19.042 : en:00:40:19.042
00:44:56.611 : en:00:44:56.611
00:48:14.266 : en:00:48:14.266
00:53:17.528 : en:00:53:17.528
00:58:14.991 : en:00:58:14.991
01:03:04.072 : en:01:03:04.072
01:08:48.624 : en:01:08:48.624
01:13:57.183 : en:01:13:57.183
01:19:32.059 : en:01:19:32.059
01:23:11.737 : en:01:23:11.737
Скриншоты:




Показать сообщения:    

Текущее время: 07-Дек 21:33

Часовой пояс: UTC + 11


Вы не можете начинать темы
Вы не можете отвечать на сообщения
Вы не можете редактировать свои сообщения
Вы не можете удалять свои сообщения
Вы не можете голосовать в опросах
Вы не можете прикреплять файлы к сообщениям
Вы не можете скачивать файлы

Сайт не предоставляет электронные версии произведений, а занимается лишь коллекционированием и каталогизацией ссылок, присылаемых и публикуемых на форуме нашими читателями. Если вы являетесь правообладателем какого-либо представленного материала и не желаете, чтобы ссылка на него находилась в нашем каталоге, свяжитесь с нами, и мы незамедлительно удалим ее. Файлы для обмена на трекере предоставлены пользователями сайта, и администрация не несет ответственности за их содержание. Просьба не заливать файлы, защищенные авторскими правами, а также файлы нелегального содержания!