+100


Топ за 24 часа
 
 

[Цитировать]

Воздушный маршал / Non-Stop«Захват самолёта - это только начало»-
Год выпуска: 2014
Страна: Великобритания , Франция , США
Жанр: детектив, триллер, боевик
Продолжительность: 01:46:37
Перевод: Дублированное [Чистый звук]
Режиссер: Хауме Кольет-Серра
Сценарий: Джон В. Ричардсон, Кристофер Роач, Райан Энгль
Продюсер: Алекс Хейнеман, Эндрю Рона, Джоэл Силвер
Оператор: Флавио Мартинес Лабиано
Композитор: Джон Оттмен
Художник: Алек Хэммонд, Дэвид Суэйзи, Катрин Мари Томас
Монтаж: Джим Мэй
В ролях: Лиам Нисон / Liam Neeson (Bill Marks), Джулианна Мур / Julianne Moore (Jen Summers), Скут МакНэйри / Scoot McNairy (Tom Bowen), Мишель Докери / Michelle Dockery (Nancy), Нэйт Паркер / Nate Parker (Zack White), Кори Столл / Corey Stoll (Austin Reilly), Лупита Нионго / Lupita Nyong'o (Gwen), Омар Метуолли / Omar Metwally (Dr. Fahim Nasir)

Описание: Межконтинентальный авиарейс. Билл Маркс, воздушный маршал, который обеспечивает безопасность пассажиров, получает сообщения с угрозами от маньяка-террориста. Преступник просчитал все ходы и подставил под обвинение самого спецагента. Теперь Маркс — цель спецслужб США. Ему остается одно: вычислить и обезвредить преступника, спасти пассажиров и свою любовь, которую он обретает на краю гибели. До взрыва остаются считанные минуты…
Бюджет: $50 000 000
Сборы в США: $91 518 705
Сборы в мире: + $107 000 000 = $198 518 705 сборы
Сборы в России: $3 431 790
Зрители: Корея Южная 2.07 млн , Мексика 1.61 млн , Франция 1.22 млн
Премьера (мир): 27 января 2014
Премьера (РФ): 12 марта 2014, «Парадиз»
Релиз на DVD: 1 июля 2014«Парадиз / Активижен»
Релиз на Blu-Ray: 1 июля 2014«Парадиз / Активижен»
Рейтинг MPAA: Детям до 13 лет просмотр не желателен-- --Качество: HDRip
Формат: AVI
Видео кодек: XviD
Аудио кодеk: AC3
Видео: 720x304 (2.35:1), 23.976 fps, XviD, 1 635 Kbps
Аудио: Аудио #1: AC3, 192 Kbps, 48.0 KHz, 2 ch

Знаете ли Вы, что...

· Во время выпуска новостей репортер говорит, что Маркс родился не в Америке, а в Северной Ирландии. Исполняющий роль Маркса Лиам Нисон родился в Северной Ирландии.
· Самолет в фильме — это Boeing 767-300.
· Около 200 человек массовки принимали участие в съемках.
· Часы, которые носит герой Лиама Нисона, — это Casio WV58A-1AV Wave Ceptor.

скриншоты

медиаинфо

General
Complete name : Non-Stop.2014.D.HDRip.1400MB.avi
Format : AVI
Format/Info : Audio Video Interleave
File size : 1.37 GiB
Duration : 1h 46mn
Overall bit rate : 1 836 Kbps
Writing application : VirtualDubMod 1.5.10.3 | www.virtualdub-fr.org || (build 2550/release)
Writing library : VirtualDubMod build 2550/release
Video
ID : 0
Format : MPEG-4 Visual
Format profile : Advanced Simple@L5
Format settings, BVOP : Yes
Format settings, QPel : No
Format settings, GMC : No warppoints
Format settings, Matrix : Custom
Codec ID : XVID
Codec ID/Hint : XviD
Duration : 1h 46mn
Bit rate : 1 635 Kbps
Width : 720 pixels
Height : 304 pixels
Display aspect ratio : 2.35:1
Frame rate : 23.976 fps
Color space : YUV
Chroma subsampling : 4:2:0
Bit depth : 8 bits
Scan type : Progressive
Bits/(Pixel*Frame) : 0.311
Stream size : 1.22 GiB (89%)
Writing library : XviD 1.2.1 (UTC 2008-12-04)
Audio
ID : 1
Format : AC-3
Format/Info : Audio Coding 3
Mode extension : CM (complete main)
Codec ID : 2000
Duration : 1h 46mn
Bit rate mode : Constant
Bit rate : 192 Kbps
Channel(s) : 2 channels
Channel positions : Front: L R
Sampling rate : 48.0 KHz
Bit depth : 16 bits
Stream size : 146 MiB (10%)
Alignment : Split accross interleaves
Interleave, duration : 42 ms (1.00 video frame)
Interleave, preload duration : 500 ms




Показать сообщения:    

Текущее время: 07-Дек 06:49

Часовой пояс: UTC + 11


Вы не можете начинать темы
Вы не можете отвечать на сообщения
Вы не можете редактировать свои сообщения
Вы не можете удалять свои сообщения
Вы не можете голосовать в опросах
Вы не можете прикреплять файлы к сообщениям
Вы не можете скачивать файлы

Сайт не предоставляет электронные версии произведений, а занимается лишь коллекционированием и каталогизацией ссылок, присылаемых и публикуемых на форуме нашими читателями. Если вы являетесь правообладателем какого-либо представленного материала и не желаете, чтобы ссылка на него находилась в нашем каталоге, свяжитесь с нами, и мы незамедлительно удалим ее. Файлы для обмена на трекере предоставлены пользователями сайта, и администрация не несет ответственности за их содержание. Просьба не заливать файлы, защищенные авторскими правами, а также файлы нелегального содержания!