+100


 

[Цитировать]

От заката до рассвета / From Dusk Till DawnГод выпуска: 2014
Страна: США
Жанр: ужасы, боевик, криминал
Продолжительность: ~ 00:43:00
Перевод: Профессиональный (многоголосый закадровый) NewStudio
Русские субтитры: нет
Режиссёр: Роберт Родригес, Джо Менендес, Эдуардо Санчес
В ролях: Д.Дж. Котрона, Зейн Холц, Роберт Патрик, Мэдисон Девенпорт, Брэндон Су Ху, Эйса Гонсалес, Todd A. Johnston, Джейк Бьюзи, Саманта Бекер, Сэнди Гарса и др.
Описание: Сет Гекко, грабитель банков, и его не совсем психически стабильный братец Ричард находятся в розыске. Разыскивают их не только ФБР, но и техасские законники — шериф МакГроу и рейнджер Гонсалес, которые утраивают усилия после того, как после очередного ограбления, устроенного братьями Гекко, в банке остается несколько трупов. Пытаясь удрать в Мексику, Гекко сталкиваются с бывшим священником Джейкобом Фуллером и его семьей, которых берут в заложники и в их же трейлере отправляются к мексиканской границе. Заехав в небольшой стрип-клуб по дороге, они неудачно знакомятся с целой прорвой жаждущих крови вампиров и пытаются хотя бы дожить до рассвета, не говоря уже о том, чтобы истребить как можно больше чудовищ.

Сэмпл
Качество: WEB-DLRip
Формат: AVI
Видео кодек: XviD
Аудио кодек: MP3
Видео: 720x400 (1.80:1), 23.976 fps, XviD build 64 ~1459 kbps avg, 0.21 bit/pixel
Аудио: 48 kHz, MPEG Layer 3, 2 ch, ~128.00 kbps avg
Аудио 2: 48 kHz, MPEG Layer 3, 2 ch, ~128.00 kbps avg

MediaInfo

Общее
Полное имя : D:\From.Dusk.Till.Dawn.(S01)\From.Dusk.Till.Dawn.s01e01.WEBDLRip.NewStudio.TV.avi
Формат : AVI
Формат/Информация : Audio Video Interleave
Размер файла : 550 Мбайт
Продолжительность : 44 м.
Общий поток : 1730 Кбит/сек
Программа кодирования : VirtualDubMod 1.5.10.2 (build 2540/release)
Библиотека кодирования : VirtualDubMod build 2540/release
Видео
Идентификатор : 0
Формат : MPEG-4 Visual
Профиль формата : Advanced Simple@L5
Параметр BVOP формата : 2
Параметр QPel формата : Нет
Параметр GMC формата : Без точки перехода
Параметр матрицы формата : Default (MPEG)
Идентификатор кодека : XVID
Идентификатор кодека/Подсказка : XviD
Продолжительность : 44 м.
Битрейт : 1460 Кбит/сек
Ширина : 720 пикселей
Высота : 400 пикселей
Соотношение сторон : 16:9
Частота кадров : 23,976 кадра/сек
Цветовое пространство : YUV
Субдискретизация насыщенности : 4:2:0
Битовая глубина : 8 бит
Тип развёртки : Прогрессивная
Метод сжатия : С потерями
Бит/(Пиксели*Кадры) : 0.211
Размер потока : 464 Мбайт (84%)
Библиотека кодирования : XviD 64
Аудио #1
Идентификатор : 1
Формат : MPEG Audio
Версия формата : Version 1
Профиль формата : Layer 3
Режим : Joint stereo
Расширение режима : MS Stereo
Идентификатор кодека : 55
Идентификатор кодека/Подсказка : MP3
Продолжительность : 44 м.
Вид битрейта : Постоянный
Битрейт : 128 Кбит/сек
Каналы : 2 канала
Частота : 48,0 КГц
Метод сжатия : С потерями
Размер потока : 40,7 Мбайт (7%)
Выравнивание : Соединение по промежуткам
Продолжительность промежутка : 42 мс. (1,00 видеокадр)
Время предзагрузки промежутка : 504 мс.
Аудио #2
Идентификатор : 2
Формат : MPEG Audio
Версия формата : Version 1
Профиль формата : Layer 3
Режим : Joint stereo
Идентификатор кодека : 55
Идентификатор кодека/Подсказка : MP3
Продолжительность : 44 м.
Вид битрейта : Постоянный
Битрейт : 128 Кбит/сек
Каналы : 2 канала
Частота : 48,0 КГц
Метод сжатия : С потерями
Размер потока : 40,7 Мбайт (7%)
Выравнивание : Соединение по промежуткам
Продолжительность промежутка : 42 мс. (1,00 видеокадр)
Время предзагрузки промежутка : 504 мс.
Библиотека кодирования : LAME3.99r
Настройки программы : -m j -V 4 -q 2 -lowpass 17 -b 128

Скриншоты





Показать сообщения:    

Текущее время: 04-Дек 10:53

Часовой пояс: UTC + 11


Вы не можете начинать темы
Вы не можете отвечать на сообщения
Вы не можете редактировать свои сообщения
Вы не можете удалять свои сообщения
Вы не можете голосовать в опросах
Вы не можете прикреплять файлы к сообщениям
Вы не можете скачивать файлы

Сайт не предоставляет электронные версии произведений, а занимается лишь коллекционированием и каталогизацией ссылок, присылаемых и публикуемых на форуме нашими читателями. Если вы являетесь правообладателем какого-либо представленного материала и не желаете, чтобы ссылка на него находилась в нашем каталоге, свяжитесь с нами, и мы незамедлительно удалим ее. Файлы для обмена на трекере предоставлены пользователями сайта, и администрация не несет ответственности за их содержание. Просьба не заливать файлы, защищенные авторскими правами, а также файлы нелегального содержания!