+100


 

[Цитировать]

-Хоккей. Чемпионат мира 2014. 1/2 финала. Россия - Швеция (2014.05.24) HDTVRip-Режиссер / Телекомпания: Россия,
Год выпуска: 2014
Жанр: Спорт, Хоккей
Комментатор: Роман Скворцов, Сергей Гимаев
Описание:
Настало время большого хоккея, ведь именно сегодня на чемпионате мира будут сыграны полуфинальные матчи! Многие болельщики в шутку называют полуфиналы пятым этапом Еврохоккейтура, ведь встречаются всем нам хорошо известные европейские сборные. Итак, поближе к нашим сегодняшним соперникам: команды встречались в этом сезоне уже четырежды, и счет по победам 3-1 в пользу россиян. На данном форуме наша дружина, ведомая Овечкиным, и присоединившимся по ходу первенства Малкиным, уверенно, со 100%-ым показателем побед выиграла группу, и не испытала никаких проблем в матче со Францией в четвертьфинале. Подопечные Пера Мортса по ходу турнира потерпели лишь одно поражение - от сборной Канады, которая уже покинула ЧМ, вышли со второго места в четвертьфинал, где сенсационно чуть ли не уступили хозяевам данного форума. "Тре крунур" - действующие чемпионы мира, и в том, что сегодня они смогут по-должному настроятся на матч с россиянами - нет никаких сомнений.
Продолжительность: 02:25:07
Качество видео: HDTVRip
Видеокодек: XviD
Битрейт видео: 1799 kb/s
Размер кадра: 704x400
Аудиокодек: MP3, 2 ch
Битрейт аудио: 128 kb/s

MI

Общее
Полное имя                               : D:\Раздачи\Чемпионат мира 2014.Полуфинал. Россия - Швеция HDTVRip.avi
Формат                                   : AVI
Формат/Информация                        : Audio Video Interleave
Размер файла                             : 1,96 Гбайт
Продолжительность                        : 2 ч. 25 м.
Общий поток                              : 1936 Кбит/сек
Программа кодирования                    : VirtualDubMod 1.5.10.2 (build 2540/release)
Библиотека кодирования                   : VirtualDubMod build 2540/release
Видео
Идентификатор                            : 0
Формат                                   : MPEG-4 Visual
Профиль формата                          : Advanced Simple@L5
Параметр BVOP формата                    : 2
Параметр QPel формата                    : Нет
Параметр GMC формата                     : Без точки перехода
Параметр матрицы формата                 : Default (H.263)
Режим смешивания                         : Сжатый битовый поток
Идентификатор кодека                     : XVID
Идентификатор кодека/Подсказка           : XviD
Продолжительность                        : 2 ч. 25 м.
Битрейт                                  : 1799 Кбит/сек
Ширина                                   : 704 пикселя
Высота                                   : 400 пикселей
Соотношение сторон                       : 16:9
Частота кадров                           : 25,000 кадров/сек
Цветовое пространство                    : YUV
Субдискретизация насыщенности            : 4:2:0
Битовая глубина                          : 8 бит
Тип развёртки                            : Прогрессивная
Метод сжатия                             : С потерями
Бит/(Пиксели*Кадры)                      : 0.255
Размер потока                            : 1,82 Гбайт (93%)
Библиотека кодирования                   : XviD 64
Аудио
Идентификатор                            : 1
Формат                                   : MPEG Audio
Версия формата                           : Version 1
Профиль формата                          : Layer 3
Режим                                    : Joint stereo
Расширение режима                        : MS Stereo
Идентификатор кодека                     : 55
Идентификатор кодека/Подсказка           : MP3
Продолжительность                        : 2 ч. 25 м.
Вид битрейта                             : Постоянный
Битрейт                                  : 128 Кбит/сек
Каналы                                   : 2 канала
Частота                                  : 48,0 КГц
Метод сжатия                             : С потерями
Размер потока                            : 133 Мбайт (7%)
Выравнивание                             : Разделение по промежуткам
Продолжительность промежутка             : 40  мс. (1,00 видеокадр)
Время предзагрузки промежутка            : 500  мс.
Скриншоты:




Показать сообщения:    

Текущее время: 11-Дек 13:11

Часовой пояс: UTC + 11


Вы не можете начинать темы
Вы не можете отвечать на сообщения
Вы не можете редактировать свои сообщения
Вы не можете удалять свои сообщения
Вы не можете голосовать в опросах
Вы не можете прикреплять файлы к сообщениям
Вы не можете скачивать файлы

Сайт не предоставляет электронные версии произведений, а занимается лишь коллекционированием и каталогизацией ссылок, присылаемых и публикуемых на форуме нашими читателями. Если вы являетесь правообладателем какого-либо представленного материала и не желаете, чтобы ссылка на него находилась в нашем каталоге, свяжитесь с нами, и мы незамедлительно удалим ее. Файлы для обмена на трекере предоставлены пользователями сайта, и администрация не несет ответственности за их содержание. Просьба не заливать файлы, защищенные авторскими правами, а также файлы нелегального содержания!