+100


Топ за 24 часа
 
 

[Цитировать]

-Новые времена / Modern Times-Год выпуска: 1936 г.
Производство: США , Charles Chaplin Productions
Жанр: комедия, драма
Продолжительность: 1:26:52
Мировая премьера: 5 февраля 1936
Дата выхода Blu-Ray: 5 июля 2011, «Деваль-Видео»
Перевод: Не требуется [немое кино]
Аудиопоток: Музыкальное сопровождение
Режиссер: Чарльз Чаплин / Charles Chaplin-В ролях: Чарльз Чаплин, Полетт Годдар, Генри Бергман, Тайни Сэндфорд, Честер Конклин, Хэнк Манн, Стэнли Блистоун, Аль Эрнест Гарсиа, Ричард Александр, Сесил Рейнольдс-Описание: «Новые времена» — это эмоциональный, выдержанный в комическом ключе, отклик на перекосы машинной эпохи. Маленький Бродяга не желает быть «винтиком» в огромной машине промышленного производства и так похожего на него человеческого общества.
Чарли сражается с тупыми богачами, всесильными полицейскими, бездушными начальниками конвейерного производства. Иногда он выигрывает в этих сражениях, чаще проигрывает, но в конце концов, бесстрашно идёт навстречу рассвету.
Хотя «Новые времена» считается последним немым фильмом Чарли Чаплина, в нём Маленький Бродяга в первый и последний раз обрёл голос. Правда, он не заговорил, а запел в финальных кадрах картины, символизируя прощание с прекрасным периодом немого кинематографа.
-Качество видео: BDRip
Контейнер: AVI
Видео кодек: XviD
Аудио кодек: AC3
Видео: 720x544, 1791 kbps, 23.976 fps, 0.191 bit/pixel
Аудио: 448 kbps, 2 ch, 48.0 kHz
Cубтитры: русские
Формат субтитров: hardsub (неотключаемые)

Media Info

Общее
Полное имя : Новые времена_ Modern Times.1936.[BDRip].avi
Формат : AVI
Формат/Информация : Audio Video Interleave
Размер файла : 1,36 Гбайт
Продолжительность : 1 ч. 26 м.
Общий поток : 2248 Кбит/сек
Программа кодирования : VirtualDubMod 1.5.10.2 (build 2540/release)
Видео
Идентификатор : 0
Формат : MPEG-4 Visual
Профиль формата : Advanced Simple@L5
Параметр BVOP формата : 2
Параметр QPel формата : Нет
Параметр GMC формата : Без точки перехода
Параметр матрицы формата : Default (MPEG)
Идентификатор кодека : XVID
Идентификатор кодека/Подсказка : XviD
Продолжительность : 1 ч. 26 м.
Битрейт : 1791 Кбит/сек
Ширина : 720 пикселей
Высота : 544 пикселя
Соотношение сторон : 4:3
Частота кадров : 23,976 кадра/сек
Цветовое пространство : YUV
Субдискретизация насыщенности : 4:2:0
Битовая глубина : 8 бит
Тип развёртки : Прогрессивная
Метод сжатия : С потерями
Бит/(Пиксели*Кадры) : 0.191
Размер потока : 1,09 Гбайт (80%)
Библиотека кодирования : XviD 1.2.1 (UTC 2008-12-04)
Аудио
Идентификатор : 1
Формат : AC-3
Формат/Информация : Audio Coding 3
Расширение режима : CM (complete main)
Параметр Endianness формата : Big
Идентификатор кодека : 2000
Продолжительность : 1 ч. 26 м.
Вид битрейта : Постоянный
Битрейт : 448 Кбит/сек
Каналы : 2 канала
Расположение каналов : Front: L R
Частота : 48,0 КГц
Битовая глубина : 16 бит
Метод сжатия : С потерями
Размер потока : 278 Мбайт (20%)
Выравнивание : Разделение по промежуткам
Продолжительность промежутка : 42 мс. (1,00 видеокадр)
Время предзагрузки промежутка : 500 мс.

Скриншоты





Показать сообщения:    

Текущее время: 11-Дек 01:42

Часовой пояс: UTC + 11


Вы не можете начинать темы
Вы не можете отвечать на сообщения
Вы не можете редактировать свои сообщения
Вы не можете удалять свои сообщения
Вы не можете голосовать в опросах
Вы не можете прикреплять файлы к сообщениям
Вы не можете скачивать файлы

Сайт не предоставляет электронные версии произведений, а занимается лишь коллекционированием и каталогизацией ссылок, присылаемых и публикуемых на форуме нашими читателями. Если вы являетесь правообладателем какого-либо представленного материала и не желаете, чтобы ссылка на него находилась в нашем каталоге, свяжитесь с нами, и мы незамедлительно удалим ее. Файлы для обмена на трекере предоставлены пользователями сайта, и администрация не несет ответственности за их содержание. Просьба не заливать файлы, защищенные авторскими правами, а также файлы нелегального содержания!