+100


 

[Цитировать]

- Уральские пельмени. В вуз не дуем! Части №1-2 (2014.05.23) SATRip -Режиссер / Телекомпания: СТС
Русское название: Уральские Пельмени
Год выпуска: 2014
Жанр: Телепередача
В ролях:
Дмитрий Брекоткин, Сергей Ершов, Сергей Исаев, Сергей Калугин, Вячеслав Мясников, Сергей Нетиевский, Александр Попов, Андрей Рожков, Сергей Светлаков, Дмитрий Соколов, Максим Ярица, Юля Михалкова
Описание:
Весёлые парни в мандариновых рубашках не дадут соскучиться и подарят отличное настроение всей семье. У юмора «Уральских пельменей» нет возрастных ограничений, они избегают «шуток ниже пояса» и на их концертах пятилетние дети смеются рядом с 50-ти летними взрослыми. Новое комедийное шоу включает в себя как самостоятельные сценические истории, так и импровизации с залом, а также смешные сценки со звёздами, которые пришли посмотреть на любимую команду и неожиданно для себя оказались на сцене.
Не пропусти новое шоу:
У всех школьников начинается самое любимое время года, это лето. Для кого то это отдых, но только не для выпускников и команды Уральских пельменей. Одни готовятся к поступления в ВУЗы, а другие новую шоу программу для нас "В ВУЗ не дуем!". Ведь Уральские пельмени давно уже позаканчивали своё обучение, но всё ещё помнят как это поступать. У каждого из команды Уральские пельмени были свои смешные моменты и они готовы это нам показать.
Продолжительность: 00:46:49
Видеокодек: DivX
Битрейт видео: ~1500 кбит/сек
Размер кадра: 720 x 400
Качество видео: SATRip
Аудиокодек: MP3, 2ch.
Битрейт аудио: 128 кбит/сек

MediaInfo

Формат : AVI
Формат/Информация : Audio Video Interleave
Размер файла : 571 Мбайт
Продолжительность : 48 м.
Общий поток : 1644 Кбит/сек
Библиотека кодирования : Boilsoft AVI tool build 1/release
Видео
Идентификатор : 0
Формат : MPEG-4 Visual
Параметр BVOP формата : Да
Параметр QPel формата : Нет
Параметр GMC формата : Без точки перехода
Параметр матрицы формата : Default (H.263)
Идентификатор кодека : DX50
Идентификатор кодека/Подсказка : DivX 5
Продолжительность : 48 м.
Битрейт : 1503 Кбит/сек
Ширина : 720 пикселей
Высота : 400 пикселей
Соотношение сторон : 16:9
Частота кадров : 25,000 кадров/сек
Цветовое пространство : YUV
Субдискретизация насыщенности : 4:2:0
Битовая глубина : 8 бит
Тип развёртки : Прогрессивная
Метод сжатия : С потерями
Бит/(Пиксели*Кадры) : 0.209
Размер потока : 522 Мбайт (91%)
Библиотека кодирования : Intel(R) MPEG-4 encoder based on Intel(R) IPP 6.1 build 137.20[6.1.137.763]
Аудио
Идентификатор : 1
Формат : MPEG Audio
Версия формата : Version 1
Профиль формата : Layer 3
Режим : Joint stereo
Расширение режима : MS Stereo
Идентификатор кодека : 55
Идентификатор кодека/Подсказка : MP3
Продолжительность : 48 м.
Вид битрейта : Постоянный
Битрейт : 128 Кбит/сек
Каналы : 2 канала
Частота : 48,0 КГц
Метод сжатия : С потерями
Размер потока : 44,5 Мбайт (8%)
Выравнивание : Соединение по промежуткам
Продолжительность промежутка : 24 мс. (0,60 видеокадр)
Время предзагрузки промежутка : 504 мс.
Библиотека кодирования : LAME3.98.2
Скриншоты:




Показать сообщения:    

Текущее время: 11-Дек 13:09

Часовой пояс: UTC + 11


Вы не можете начинать темы
Вы не можете отвечать на сообщения
Вы не можете редактировать свои сообщения
Вы не можете удалять свои сообщения
Вы не можете голосовать в опросах
Вы не можете прикреплять файлы к сообщениям
Вы не можете скачивать файлы

Сайт не предоставляет электронные версии произведений, а занимается лишь коллекционированием и каталогизацией ссылок, присылаемых и публикуемых на форуме нашими читателями. Если вы являетесь правообладателем какого-либо представленного материала и не желаете, чтобы ссылка на него находилась в нашем каталоге, свяжитесь с нами, и мы незамедлительно удалим ее. Файлы для обмена на трекере предоставлены пользователями сайта, и администрация не несет ответственности за их содержание. Просьба не заливать файлы, защищенные авторскими правами, а также файлы нелегального содержания!