+100


Топ за 24 часа
 
 

[Цитировать]

Майло / Bad Milo!
«Embrace your inner demon»
Год выпуска: 2013
Страна: США
Жанр: ужасы, комедия, фэнтези
Продолжительность: 01:24:07
Перевод: Профессиональный (многоголосый закадровый)[лицензия]
Режиссер: Джейкоб Вон
В ролях: Кен Марино (Ken Marino), Джиллиан Джейкобс (Gillian Jacobs), Патрик Варбертон (Patrick Warburton), Мэри Кэй Плэйс (Mary Kay Place), Стивен Рут (Stephen Root), Петер Стормаре (Peter Stormare), Клаудия Чои (Claudia Choi), Тоби Хасс (Toby Huss)
Описание: Молодой мужчина обнаруживает, что в стрессовых ситуациях превращается в страшного гнома, который живет внутри него и выходит, чтобы отомстить всем его беспокоящим. Только за счет управления своим стрессом и борьбы с этим демоном он может защитить себя и своих близких от страданий и ужасной смерти.
Сборы в США: $19 613
Рейтинг MPAA:

Качество: HDRip
Формат: AVI
Видео кодек: XviD
Аудио кодек: AC3
Видео: 720x384 (1.875:1), 23.976 fps, XviD, 1 931 Kbps
Аудио #1: AC3, 384 Kbps, 48.0 KHz, 6 ch

MediaInfo

General
Complete name : Majl0.2013.P.HDRip.avi
Format : AVI
Format/Info : Audio Video Interleave
File size : 1.37 GiB
Duration : 1h 24mn
Overall bit rate : 2 324 Kbps
Writing application : VirtualDubMod 1.5.10.2 (build 2540/release)
Writing library : VirtualDubMod build 2540/release
Video
ID : 0
Format : MPEG-4 Visual
Format profile : Advanced Simple@L5
Format settings, BVOP : Yes
Format settings, QPel : No
Format settings, GMC : No warppoints
Format settings, Matrix : Default (MPEG)
Codec ID : XVID
Codec ID/Hint : XviD
Duration : 1h 24mn
Bit rate : 1 931 Kbps
Width : 720 pixels
Height : 384 pixels
Display aspect ratio : 1.875
Frame rate : 23.976 fps
Color space : YUV
Chroma subsampling : 4:2:0
Bit depth : 8 bits
Scan type : Progressive
Bits/(Pixel*Frame) : 0.291
Stream size : 1.13 GiB (83%)
Writing library : XviD 1.2.1 (UTC 2008-12-04)
Audio
ID : 1
Format : AC-3
Format/Info : Audio Coding 3
Mode extension : CM (complete main)
Codec ID : 2000
Duration : 1h 24mn
Bit rate mode : Constant
Bit rate : 384 Kbps
Channel(s) : 6 channels
Channel positions : Front: L C R, Side: L R, LFE
Sampling rate : 48.0 KHz
Bit depth : 16 bits
Stream size : 231 MiB (17%)
Alignment : Split accross interleaves
Interleave, duration : 42 ms (1.00 video frame)
Interleave, preload duration : 500 ms

Скриншоты





Показать сообщения:    

Текущее время: 07-Дек 06:52

Часовой пояс: UTC + 11


Вы не можете начинать темы
Вы не можете отвечать на сообщения
Вы не можете редактировать свои сообщения
Вы не можете удалять свои сообщения
Вы не можете голосовать в опросах
Вы не можете прикреплять файлы к сообщениям
Вы не можете скачивать файлы

Сайт не предоставляет электронные версии произведений, а занимается лишь коллекционированием и каталогизацией ссылок, присылаемых и публикуемых на форуме нашими читателями. Если вы являетесь правообладателем какого-либо представленного материала и не желаете, чтобы ссылка на него находилась в нашем каталоге, свяжитесь с нами, и мы незамедлительно удалим ее. Файлы для обмена на трекере предоставлены пользователями сайта, и администрация не несет ответственности за их содержание. Просьба не заливать файлы, защищенные авторскими правами, а также файлы нелегального содержания!