+100


 

[Цитировать]

-Хоккей - Чемпионат мира 2014. Группа B / 3-ий тур: Россия - США (2014) HDTVRip -Режиссер / Телекомпания: Спорт 1HD
Год выпуска: 2014
Жанр: Спорт
Описание:
Чемпионат Мира по хоккею продолжается и сегодня в Минске состоится одна из ключевых встреч. Сборная России сразится с принципиальными соперниками из сборной Соединённых Штатов Америки. Оба коллектива находятся в отборочной группе B, где занимают два 1-х места. Правда по разнице забитых и пропущенных шайб наши с вами соотечественники опережают западных хоккеистов. Всего же на групповом этапе было сыграно 2 матча. Подопечные Олега Знарока одержали верх и над швейцарцами (0:5) и над финнами (2:4). США так же сумели в обоих своих встречах показать свой характер и одержать победы. Сначала была разгромлена сборная команды Белоруссии (1:6), после чего переиграны те же самые бедные швейцарцы (3:2). Предстоящую игру, которая пройдет на стадионе "Минск-Арена", рассудит чешская бригада арбитров в лице Антонина Ержабека и Владимира Шиндлера.
Продолжительность: 02:00:00
Качество видео: HDTVRip
Перевод: Двуголосый закадровый, любительский
Видеокодек: Xvid
Битрейт видео: ~1800 kb/s
Размер кадра: 704x400
Аудиокодек: MP3
Битрейт аудио: 128 kb/s
Скриншоты:

MediaInfo

Общее
Полное имя : Чемпионат мира 2014 Группа B 3-ий тур Россия - США.avi
Формат : AVI
Формат/Информация : Audio Video Interleave
Размер файла : 1,82 Гбайт
Продолжительность : 2 ч. 14 м.
Общий поток : 1936 Кбит/сек
Программа кодирования : VirtualDubMod 1.5.10.2 (build 2540/release)
Библиотека кодирования : VirtualDubMod build 2540/release
Видео
Идентификатор : 0
Формат : MPEG-4 Visual
Профиль формата : Advanced Simple@L5
Параметр BVOP формата : 2
Параметр QPel формата : Нет
Параметр GMC формата : Без точки перехода
Параметр матрицы формата : Default (H.263)
Режим смешивания : Сжатый битовый поток
Идентификатор кодека : XVID
Идентификатор кодека/Подсказка : XviD
Продолжительность : 2 ч. 14 м.
Битрейт : 1799 Кбит/сек
Ширина : 704 пикселя
Высота : 400 пикселей
Соотношение сторон : 16:9
Частота кадров : 25,000 кадров/сек
Цветовое пространство : YUV
Субдискретизация насыщенности : 4:2:0
Битовая глубина : 8 бит
Тип развёртки : Прогрессивная
Метод сжатия : С потерями
Бит/(Пиксели*Кадры) : 0.255
Размер потока : 1,69 Гбайт (93%)
Библиотека кодирования : XviD 64
Аудио
Идентификатор : 1
Формат : MPEG Audio
Версия формата : Version 1
Профиль формата : Layer 3
Режим : Joint stereo
Расширение режима : MS Stereo
Идентификатор кодека : 55
Идентификатор кодека/Подсказка : MP3
Продолжительность : 2 ч. 14 м.
Вид битрейта : Постоянный
Битрейт : 128 Кбит/сек
Каналы : 2 канала
Частота : 48,0 КГц
Метод сжатия : С потерями
Размер потока : 123 Мбайт (7%)
Выравнивание : Разделение по промежуткам
Продолжительность промежутка : 40 мс. (1,00 видеокадр)
Время предзагрузки промежутка : 500 мс.




Показать сообщения:    

Текущее время: 07-Дек 06:49

Часовой пояс: UTC + 11


Вы не можете начинать темы
Вы не можете отвечать на сообщения
Вы не можете редактировать свои сообщения
Вы не можете удалять свои сообщения
Вы не можете голосовать в опросах
Вы не можете прикреплять файлы к сообщениям
Вы не можете скачивать файлы

Сайт не предоставляет электронные версии произведений, а занимается лишь коллекционированием и каталогизацией ссылок, присылаемых и публикуемых на форуме нашими читателями. Если вы являетесь правообладателем какого-либо представленного материала и не желаете, чтобы ссылка на него находилась в нашем каталоге, свяжитесь с нами, и мы незамедлительно удалим ее. Файлы для обмена на трекере предоставлены пользователями сайта, и администрация не несет ответственности за их содержание. Просьба не заливать файлы, защищенные авторскими правами, а также файлы нелегального содержания!