+100


 

[Цитировать]

-БИ-2 & Prague Metropolitan Symphonic Orchestra-
Жанр: Rock
Страна-производитель диска: Россия
Год издания: 2013
Издатель (лейбл): ООО "Мистерия Плюс"
Номер по каталогу: CD-M+244-2/9
Страна: Россия
Аудиокодек: FLAC (*.flac)
Тип рипа: image+.cue
Битрейт аудио: lossless
Продолжительность: 01:13:31
Наличие сканов в содержимом раздачи: да
- -

треклист

01. Её глаза
02. Bowie
03. Девушки
04. До утра (feat. Ю. Чичерина)
05. Вечная призрачная встречная
06. Реки любви
07. Безвоздушная тревога (feat. Т. Гвердцители)
08. Муза
09. Блюз (feat. Н. Полева)
10. Шамбала (feat. Е. Кауфман)
11. Школа танцев
12. 1000 миль
13. Белые одежды (feat. Т. Гвердцители)
14. Вниз по течению неба (feat. Н. Полева)
15. Бегущий по лезвию бритвы (feat. В. Демидова)
16. Шар земной
+ bonus:
17. Её глаза (hidden track)
- -

лог создания рипа

Exact Audio Copy V1.0 beta 3 from 29. August 2011
Отчёт EAC об извлечении, выполненном 19. декабря 2013, 12:34
- / БИ-2 & Prague Metropolitan Symphonic Orchestra
Дисковод: PIONEER BD-RW   BDR-207D   Adapter: 0  ID: 0
Режим чтения                 : Достоверность
Использование точного потока : Да
Отключение кэша аудио        : Да
Использование указателей C2  : Нет
Коррекция смещения при чтении                     : 667
Способность читать области Lead-in и Lead-out     : Нет
Заполнение пропущенных сэмплов тишиной            : Да
Удаление блоков с тишиной в начале и конце        : Нет
При вычислениях CRC использовались нулевые сэмплы : Да
Интерфейс                                         : Встроенный Win32-интерфейс для Win NT/2000
Выходной формат          : Пользовательский кодировщик
Выбранный битрейт        : 128 kBit/s
Качество                 : Высокий
Добавление ID3-тега      : Нет
Утилита сжатия           : D:\Установленные\Exact Audio Copy\Flac\flac.exe
Дополнительные параметры : -V -8 -T "Date=%year%" -T "Genre=%genre%" %source%
TOC извлечённого CD
Трек |   Старт  | Длительность | Начальный сектор | Конечный сектор
---------------------------------------------------------------------
1  |  0:00.00 |    4:31.21   |           0      |      20345
2  |  4:31.21 |    4:11.35   |       20346      |      39205
3  |  8:42.56 |    3:50.63   |       39206      |      56518
4  | 12:33.44 |    3:52.61   |       56519      |      73979
5  | 16:26.30 |    4:50.20   |       73980      |      95749
6  | 21:16.50 |    3:55.10   |       95750      |     113384
7  | 25:11.60 |    5:26.71   |      113385      |     137905
8  | 30:38.56 |    3:22.42   |      137906      |     153097
9  | 34:01.23 |    5:03.25   |      153098      |     175847
10  | 39:04.48 |    3:38.39   |      175848      |     192236
11  | 42:43.12 |    3:31.50   |      192237      |     208111
12  | 46:14.62 |    4:26.13   |      208112      |     228074
13  | 50:41.00 |    4:05.38   |      228075      |     246487
14  | 54:46.38 |    5:18.20   |      246488      |     270357
15  | 60:04.58 |    3:59.27   |      270358      |     288309
16  | 64:04.10 |    4:56.73   |      288310      |     310582
17  | 69:01.08 |    4:29.42   |      310583      |     330799
Характеристики диапазона извлечения и сообщения об ошибках
Выбранный диапазон
Имя файла C:\Users\Omich18\Desktop\БИ-2 & Prague Metropolitan Symphonic Orchestra\БИ-2 & Prague Metropolitan Symphonic Orchestra.wav
Пиковый уровень 100.0 %
Скорость извлечения 1.9 X
Качество диапазона 100.0 %
CRC теста D897A62B
CRC копии D897A62B
Копирование... OK
Ошибок не произошло
Конец отчёта

содержание индексной карты *cue

REM GENRE Rock
REM DATE 2013
REM DISCID FB113A11
REM COMMENT "ExactAudioCopy v1.0b3"
PERFORMER "БИ-2"
TITLE "БИ-2 & Prague Metropolitan Symphonic Orchestra"
FILE "Image_CD.flac" WAVE
TRACK 01 AUDIO
TITLE "Её глаза"
INDEX 01 00:00:00
TRACK 02 AUDIO
TITLE "Bowie"
INDEX 00 04:29:22
INDEX 01 04:31:21
TRACK 03 AUDIO
TITLE "Девушки"
INDEX 00 08:40:57
INDEX 01 08:42:56
TRACK 04 AUDIO
TITLE "До утра (feat. Ю. Чичерина)"
INDEX 00 12:30:44
INDEX 01 12:33:44
TRACK 05 AUDIO
TITLE "Вечная призрачная встречная"
INDEX 00 16:24:31
INDEX 01 16:26:30
TRACK 06 AUDIO
TITLE "Реки любви"
INDEX 00 21:14:51
INDEX 01 21:16:50
TRACK 07 AUDIO
TITLE "Безвоздушная тревога (feat. Т. Гвердцители)"
INDEX 00 25:09:61
INDEX 01 25:11:60
TRACK 08 AUDIO
TITLE "Муза"
INDEX 00 30:36:57
INDEX 01 30:38:56
TRACK 09 AUDIO
TITLE "Блюз (feat. Н. Полева)"
INDEX 00 33:59:24
INDEX 01 34:01:23
TRACK 10 AUDIO
TITLE "Шамбала (feat. Е. Кауфман)"
INDEX 00 39:02:49
INDEX 01 39:04:48
TRACK 11 AUDIO
TITLE "Школа танцев"
INDEX 00 42:41:13
INDEX 01 42:43:12
TRACK 12 AUDIO
TITLE "1000 миль"
INDEX 00 46:12:63
INDEX 01 46:14:62
TRACK 13 AUDIO
TITLE "Белые одежды (feat. Т. Гвердцители)"
INDEX 00 50:39:01
INDEX 01 50:41:00
TRACK 14 AUDIO
TITLE "Вниз по течению неба (feat. Н. Полева)"
INDEX 00 54:44:39
INDEX 01 54:46:38
TRACK 15 AUDIO
TITLE "Бегущий по лезвию бритвы (feat. В. Демидова)"
INDEX 00 60:01:56
INDEX 01 60:04:58
TRACK 16 AUDIO
TITLE "Шар земной"
INDEX 00 64:02:11
INDEX 01 64:04:10
TRACK 17 AUDIO
TITLE "Её глаза (hidden track)"
INDEX 00 68:51:52
INDEX 01 69:01:08




Показать сообщения:    

Текущее время: 07-Дек 21:36

Часовой пояс: UTC + 11


Вы не можете начинать темы
Вы не можете отвечать на сообщения
Вы не можете редактировать свои сообщения
Вы не можете удалять свои сообщения
Вы не можете голосовать в опросах
Вы не можете прикреплять файлы к сообщениям
Вы не можете скачивать файлы

Сайт не предоставляет электронные версии произведений, а занимается лишь коллекционированием и каталогизацией ссылок, присылаемых и публикуемых на форуме нашими читателями. Если вы являетесь правообладателем какого-либо представленного материала и не желаете, чтобы ссылка на него находилась в нашем каталоге, свяжитесь с нами, и мы незамедлительно удалим ее. Файлы для обмена на трекере предоставлены пользователями сайта, и администрация не несет ответственности за их содержание. Просьба не заливать файлы, защищенные авторскими правами, а также файлы нелегального содержания!