+100


 

[Цитировать]

- Зинаида Лукьянова | Фотошоп с нуля в видеоформате 3.0 (2015) PCRec [H.264/720p]-Автор (режиссер): Зинаида Лукьянова
Жанр: Видеоуроки
Описание:
Если Вы поставили перед собой цель - изучить Фотошоп, причем сделать это в короткие сроки без потери времени и денег, то Вам очень повезло, что Вы нашли эту страничку...
В современном мире знания фотошопа требуются не только профессиональным фотографам или художникам, но и многим другим людям занятым в самых разных сферах деятельности.
Благодаря технологии экранного видео, сегодня Вы можете изучить фотошоп и начать использовать его на полную катушку в три раза быстрее своего конкурента, который будет пыхтеть над книгами и рвать на себе волосы оттого, что не может добиться нужного результата.
Продолжительность: 19:14:30
Качество видео: PCRec
Видео: AVC/H.264, 1280х720, ~204 Kbps
Аудио: AAC, 2 ch, 93.6 Kbps

Mediainfo:

General
Complete name                            : D:\Downloads\Kursi\Obuchenie_3.0\Фотошоп с нуля в видеоформате 3.0 (Зинаида Лукьянова)\rs\video\1\01.mp4
Format                                   : MPEG-4
Format profile                           : Base Media / Version 2
Codec ID                                 : mp42
File size                                : 28.7 MiB
Duration                                 : 13mn 23s
Overall bit rate mode                    : Variable
Overall bit rate                         : 300 Kbps
Encoded date                             : UTC 2015-12-06 18:57:02
Tagged date                              : UTC 2015-12-06 18:57:02
Video
ID                                       : 1
Format                                   : AVC
Format/Info                              : Advanced Video Codec
Format profile                           : [url=mailto:Baseline@L3.1]Baseline@L3.1[/url]
Format settings, CABAC                   : No
Format settings, ReFrames                : 3 frames
Format settings, GOP                     : M=1, N=50
Codec ID                                 : avc1
Codec ID/Info                            : Advanced Video Coding
Duration                                 : 13mn 23s
Bit rate                                 : 204 Kbps
Width                                    : 1 280 pixels
Height                                   : 720 pixels
Display aspect ratio                     : 16:9
Frame rate mode                          : Constant
Frame rate                               : 10.000 fps
Color space                              : YUV
Chroma subsampling                       : 4:2:0
Bit depth                                : 8 bits
Scan type                                : Progressive
Bits/(Pixel*Frame)                       : 0.022
Stream size                              : 19.6 MiB (68%)
Language                                 : English
Encoded date                             : UTC 2015-12-06 18:57:03
Tagged date                              : UTC 2015-12-06 18:57:03
Audio
ID                                       : 2
Format                                   : AAC
Format/Info                              : Advanced Audio Codec
Format profile                           : LC
Codec ID                                 : 40
Duration                                 : 13mn 23s
Source duration                          : 13mn 23s
Bit rate mode                            : Variable
Bit rate                                 : 93.6 Kbps
Maximum bit rate                         : 112 Kbps
Channel(s)                               : 2 channels
Channel positions                        : Front: L R
Sampling rate                            : 44.1 KHz
Compression mode                         : Lossy
Stream size                              : 8.96 MiB (31%)
Source stream size                       : 8.96 MiB (31%)
Language                                 : English
Encoded date                             : UTC 2015-12-06 18:57:03
Tagged date                              : UTC 2015-12-06 18:57:03
mdhd_Duration                            : 803225

ИНТЕРЕСНЫЕ ФАКТЫ О КУРСЕ:

Количество уроков: 82
Продолжительность всех уроков: 17 часов 25 минут
Даты создания курса: c декабря 2014 г. по декабрь 2015 г.
Версия Adobe Photoshop в уроках: СС 2014, CC 2015 (Русская версия)
В каких системах работает курс: Windows, MacOS, Linux
Размер курса: 4 Гб
Формат распространения: Электронная версия
Формат меню: HTML (запускается в вашем браузере)
Дополнительные материалы: Прилагаются к каждому уроку
Возможность запуска на разных компьютерах: Да
ЭТОТ КУРС СОЗДАН СПЕЦИАЛЬНО ДЛЯ НОВИЧКОВ
Когда мы только начинали продумывать план курса, то сразу решили, что он будет направлен на тех людей, которые совершенно не разбираются в программе и хотели бы освоить её с чистого листа.
Поэтому каждый инструмент, каждая кнопка, объясняется максимально подробно и на практических примерах. К каждому уроку даются дополнительные материалы, чтобы вы могли повторять все мои действия и получать такой же результат.
И что самое главное — весь материал дается по принципу — от простого к сложному.
Мы подготовили для вас ряд ценных бонусов.
№1. АНИМАЦИЯ И ВИДЕО В ADOBE PHOTOSHOPБОНУС
№2. НЕВЕРОЯТНЫЕ 3D-ОБЪЕКТЫ В ADOBE PHOTOSHOPБОНУС
№3. ПЛАГИНЫ-ПОМОЩНИКИ В ADOBE PHOTOSHOPБОНУС
№4.ФОТО С 3D-ЭФФЕКТОМ В ADOBE PHOTOSHOP
№5. МЕГА-КОЛЛЕКЦИЯ ЛЕГАЛЬНОЙ ГРАФИКИ В PSD
Скриншоты:




Показать сообщения:    

Текущее время: 23-Июн 19:22

Часовой пояс: UTC + 11


Вы не можете начинать темы
Вы не можете отвечать на сообщения
Вы не можете редактировать свои сообщения
Вы не можете удалять свои сообщения
Вы не можете голосовать в опросах
Вы не можете прикреплять файлы к сообщениям
Вы не можете скачивать файлы

Сайт не предоставляет электронные версии произведений, а занимается лишь коллекционированием и каталогизацией ссылок, присылаемых и публикуемых на форуме нашими читателями. Если вы являетесь правообладателем какого-либо представленного материала и не желаете, чтобы ссылка на него находилась в нашем каталоге, свяжитесь с нами, и мы незамедлительно удалим ее. Файлы для обмена на трекере предоставлены пользователями сайта, и администрация не несет ответственности за их содержание. Просьба не заливать файлы, защищенные авторскими правами, а также файлы нелегального содержания!