+100


Топ за 24 часа
 
 

[Цитировать]

Симпсоны / The Simpsons- - Страна: США
Жанр: Комедия
Продолжительность: ~22мин
Год выпуска: 2013
Перевод: (одноголосый закадровый)-Режиссёр: Мэтт Гроунинг / Matt Groening
Роли озвучивали: Дэн Кастелланета, Джули Кавнер, Нэнси Картрайт, Ярдли Смит, Гарри Ширер, Хэнк Азария, Памела Хейден, Тресс МакНилл, Карл Видерготт, Мэгги Росвэлл-Описание: Симпсоны живут в вымышленном городе Спрингфилд, со своим обществом и историей. Гомер - отец семейства, который дает плохие советы и работает инспектором безопасности на атомной электростанции; Мардж - любящая мать и жена, старается сохранить спокойствие в семье; Барт - 10 летний хулиган; Лиза - философский 8-летний ребенок; и Мэгги - младенец, который общается посредством соски.-Качество: WEB-DL 720
Контейнер: MKV
Видео кодек: H 264
Аудио кодек: AC 3
Видео: H 264 / 3807 Кбит/сек / 1280 x 718 / 23.976 fps / 16:9
Аудио : AC3 / 192 Kbps / 48 KHz / 2 ch [RUS]
Аудио : AC 3 / 384 Kbps / 48.0 KHz / 6 ch [ENG]
Субтитры: Отсутствуют
Сэмпл--

Скриншоты

- -

Список серий:


1 Homerland

2 Treehouse of Horror XXIV
3 Four Regrettings And A Funeral
4 YOLO
5 Labor Pains
6 The Kid is All Right
7 Yellow Subterfuge
8 White Christmas Blues
9 Steal This Episode
10 Married to the Blob
11 Specs and the City
12 Diggs
13 The Man Who Grew Too Much
14 The Winter of His Content
15 The War of Art
16 You Don't Have to Live Like a Referee
17 Luca$
18 Days of Future Future
19 What to Expect When Bart's Expecting
20 Brick Like Me
21 Pay Pal

Media Info

Complete name : D:\Новая папка\The.Simpsons.S25_720p.WEB-DL\The.Simpsons.S25E01.Homerland.720p.WEB-DL.mkv
Format : Matroska
Format version : Version 4 / Version 2
File size : 678 MiB
Duration : 21mn 13s
Overall bit rate : 4 467 Kbps
Encoded date : UTC 2013-10-01 11:29:12
Writing application : mkvmerge v6.1.0 ('Old Devil') built on Mar 2 2013 14:32:37
Writing library : libebml v1.3.0 + libmatroska v1.4.0
Video
ID : 1
Format : AVC
Format/Info : Advanced Video Codec
Format profile : High@L3.1
Format settings, CABAC : No
Format settings, ReFrames : 2 frames
Format settings, GOP : N=1
Codec ID : V_MPEG4/ISO/AVC
Duration : 21mn 13s
Bit rate : 3 802 Kbps
Width : 1 280 pixels
Height : 718 pixels
Display aspect ratio : 16:9
Original display aspect ratio : 16:9
Frame rate mode : Constant
Frame rate : 23.976 fps
Color space : YUV
Chroma subsampling : 4:2:0
Bit depth : 8 bits
Scan type : Progressive
Bits/(Pixel*Frame) : 0.173
Stream size : 577 MiB (85%)
Title : H.264
Default : Yes
Forced : No
Color primaries : BT.709
Transfer characteristics : BT.709
Matrix coefficients : BT.709
Audio #1
ID : 2
Format : AC-3
Format/Info : Audio Coding 3
Mode extension : CM (complete main)
Format settings, Endianness : Big
Codec ID : A_AC3
Duration : 21mn 13s
Bit rate mode : Constant
Bit rate : 192 Kbps
Channel(s) : 2 channels
Channel positions : Front: L R
Sampling rate : 48.0 KHz
Bit depth : 16 bits
Compression mode : Lossy
Stream size : 29.2 MiB (4%)
Title : Ketchup.TV
Language : Russian
Default : Yes
Forced : No
Audio #2
ID : 3
Format : AC-3
Format/Info : Audio Coding 3
Mode extension : CM (complete main)
Format settings, Endianness : Big
Codec ID : A_AC3
Duration : 21mn 13s
Bit rate mode : Constant
Bit rate : 384 Kbps
Channel(s) : 6 channels
Channel positions : Front: L C R, Side: L R, LFE
Sampling rate : 48.0 KHz
Bit depth : 16 bits
Compression mode : Lossy
Stream size : 58.3 MiB (9%)
Title : DD5.1
Language : English
Default : No
Forced : No




Показать сообщения:    

Текущее время: 11-Дек 18:56

Часовой пояс: UTC + 11


Вы не можете начинать темы
Вы не можете отвечать на сообщения
Вы не можете редактировать свои сообщения
Вы не можете удалять свои сообщения
Вы не можете голосовать в опросах
Вы не можете прикреплять файлы к сообщениям
Вы не можете скачивать файлы

Сайт не предоставляет электронные версии произведений, а занимается лишь коллекционированием и каталогизацией ссылок, присылаемых и публикуемых на форуме нашими читателями. Если вы являетесь правообладателем какого-либо представленного материала и не желаете, чтобы ссылка на него находилась в нашем каталоге, свяжитесь с нами, и мы незамедлительно удалим ее. Файлы для обмена на трекере предоставлены пользователями сайта, и администрация не несет ответственности за их содержание. Просьба не заливать файлы, защищенные авторскими правами, а также файлы нелегального содержания!