+100


Топ за 24 часа
 
 

[Цитировать]

Золото / Gold
Год выпуска: 2013
Страна: Германия , Канада
Жанр: драма, приключения, вестерн
Продолжительность: 01:40:07
Перевод: Профессиональный (многоголосый закадровый)[НТВ+]
Режиссер: Томас Арслан
В ролях: Нина Хосс (Nina Hoss), Марко Мандич (Marko Mandic), Петер Курт (Peter Kurth), Уве Бом (Uwe Bohm), Роза Энскат (Rosa Enskat), Вольфганг Пакхёузер (Wolfgang Packhäuser), Ларс Рудольф (Lars Rudolph), Брендан Бэйли (Brendan Bailey)
Описание: Канада, лето 1898 года. Разгар Золотой лихорадки. Группа немецких переселенцев держит путь на далекий север, в сторону Доусона. Там, на Клондайке, на недавно открытых приисках каждый сможет мгновенно разбогатеть, надо пройти «всего лишь» 2000 километров, а затем найти золотую жилу. Но причина отправиться в этот полный опасностей поход не только в жажде наживы. Журналист Густав мечтает прославиться, а ковбой Карл надеется скрыться от преследования убийц. Лишь мотивы холодной красавицы Эмили, с железной невозмутимостью переносящей тяготы путешествия, поначалу неясны. Вся эти люди, случайно оказавшиеся в одной группе, и представить себе не могут, что богини судьбы уже начали неумолимый отсчет последних часов жизни для большинства из них…

Качество: HDRip
Формат: AVI
Видео кодек: XviD
Аудио кодек: AC3
Видео: 720x304 (2.35:1), 24.000 fps, XviD, 1 883 Kbps
Аудио #1: AC3, 192 Kbps, 48.0 KHz, 2 ch

MediaInfo

General
Complete name : Zoloto.2013.P.HDRip.avi
Format : AVI
Format/Info : Audio Video Interleave
File size : 1.46 GiB
Duration : 1h 40mn
Overall bit rate : 2 085 Kbps
Writing application : VirtualDubMod 1.5.10.2 (build 2540/release)
Writing library : VirtualDubMod build 2540/release
Video
ID : 0
Format : MPEG-4 Visual
Format profile : Advanced Simple@L5
Format settings, BVOP : Yes
Format settings, QPel : No
Format settings, GMC : No warppoints
Format settings, Matrix : Default (MPEG)
Codec ID : XVID
Codec ID/Hint : XviD
Duration : 1h 40mn
Bit rate : 1 883 Kbps
Width : 720 pixels
Height : 304 pixels
Display aspect ratio : 2.35:1
Frame rate : 24.000 fps
Color space : YUV
Chroma subsampling : 4:2:0
Bit depth : 8 bits
Scan type : Progressive
Bits/(Pixel*Frame) : 0.359
Stream size : 1.32 GiB (90%)
Writing library : XviD 1.2.1 (UTC 2008-12-04)
Audio
ID : 1
Format : AC-3
Format/Info : Audio Coding 3
Mode extension : CM (complete main)
Codec ID : 2000
Duration : 1h 40mn
Bit rate mode : Constant
Bit rate : 192 Kbps
Channel(s) : 2 channels
Channel positions : Front: L R
Sampling rate : 48.0 KHz
Bit depth : 16 bits
Stream size : 138 MiB (9%)
Alignment : Split accross interleaves
Interleave, duration : 42 ms (1.00 video frame)
Interleave, preload duration : 500 ms

Скриншоты





Показать сообщения:    

Текущее время: 04-Дек 10:54

Часовой пояс: UTC + 11


Вы не можете начинать темы
Вы не можете отвечать на сообщения
Вы не можете редактировать свои сообщения
Вы не можете удалять свои сообщения
Вы не можете голосовать в опросах
Вы не можете прикреплять файлы к сообщениям
Вы не можете скачивать файлы

Сайт не предоставляет электронные версии произведений, а занимается лишь коллекционированием и каталогизацией ссылок, присылаемых и публикуемых на форуме нашими читателями. Если вы являетесь правообладателем какого-либо представленного материала и не желаете, чтобы ссылка на него находилась в нашем каталоге, свяжитесь с нами, и мы незамедлительно удалим ее. Файлы для обмена на трекере предоставлены пользователями сайта, и администрация не несет ответственности за их содержание. Просьба не заливать файлы, защищенные авторскими правами, а также файлы нелегального содержания!