+100


Топ за 24 часа
 
 

[Цитировать]

Младенец в подарок / Expecting
«Когда планируешь жизнь заранее, судьба готовит неожиданные сюрпризы»
Год выпуска: 2013
Страна: США
Жанр: драма, комедия
Продолжительность: 01:27:25
Перевод: Профессиональный (многоголосый закадровый)
Режиссер: Джесси МакКормак
В ролях: Мишель Монахэн (Michelle Monaghan), Рада Митчелл (Radha Mitchell), Джон Дор (Jon Dore), Майкл Уэстон (Michael Weston), Мими Кеннеди (Mimi Kennedy), Сара Олдрич (Sarah Aldrich), Элизабет Бонд (Elizabeth Bond), Нуала Кэмпбелл (Nuala Campbell)
Описание: Лиза стремится создать семью со свои мужем Питером, но не может забеременеть. Ее лучшая подруга Энди тем временем узнает, что беременна и предлагает своего ребенка отдать Лизе. Лиза приглашает Энди пожить на время беременности у них, а Питер приглашает своего непутевого брата. В доме начинает твориться хаос, и одному Богу известно чем все это может закончиться…

Качество: WEB-DLRip
Формат: AVI
Видео кодек: XviD
Аудио кодек: MP3
Видео: 720x400 (16:9), 23.976 fps, XviD, 2 037 Kbps
Аудио #1: MP3, 192 Kbps, 48.0 KHz, 2 ch

MediaInfo

General
Complete name : Mladenec.v.podarok.2013.P.WEB-DLRip.avi
Format : AVI
Format/Info : Audio Video Interleave
File size : 1.37 GiB
Duration : 1h 27mn
Overall bit rate : 2 238 Kbps
Writing application : VirtualDubMod 1.5.10.3 | www.virtualdub-fr.org || (build 2550/release)
Writing library : VirtualDubMod build 2550/release
Video
ID : 0
Format : MPEG-4 Visual
Format profile : Advanced Simple@L5
Format settings, BVOP : Yes
Format settings, QPel : No
Format settings, GMC : No warppoints
Format settings, Matrix : Custom
Codec ID : XVID
Codec ID/Hint : XviD
Duration : 1h 27mn
Bit rate : 2 037 Kbps
Width : 720 pixels
Height : 400 pixels
Display aspect ratio : 16:9
Frame rate : 23.976 fps
Color space : YUV
Chroma subsampling : 4:2:0
Bit depth : 8 bits
Scan type : Progressive
Bits/(Pixel*Frame) : 0.295
Stream size : 1.24 GiB (91%)
Writing library : XviD 1.2.1 (UTC 2008-12-04)
Audio
ID : 1
Format : MPEG Audio
Format version : Version 1
Format profile : Layer 3
Codec ID : 55
Codec ID/Hint : MP3
Duration : 1h 27mn
Bit rate mode : Constant
Bit rate : 192 Kbps
Channel(s) : 2 channels
Sampling rate : 48.0 KHz
Stream size : 120 MiB (9%)
Alignment : Aligned on interleaves
Interleave, duration : 42 ms (1.00 video frame)
Interleave, preload duration : 504 ms

Скриншоты





Показать сообщения:    

Текущее время: 11-Дек 19:01

Часовой пояс: UTC + 11


Вы не можете начинать темы
Вы не можете отвечать на сообщения
Вы не можете редактировать свои сообщения
Вы не можете удалять свои сообщения
Вы не можете голосовать в опросах
Вы не можете прикреплять файлы к сообщениям
Вы не можете скачивать файлы

Сайт не предоставляет электронные версии произведений, а занимается лишь коллекционированием и каталогизацией ссылок, присылаемых и публикуемых на форуме нашими читателями. Если вы являетесь правообладателем какого-либо представленного материала и не желаете, чтобы ссылка на него находилась в нашем каталоге, свяжитесь с нами, и мы незамедлительно удалим ее. Файлы для обмена на трекере предоставлены пользователями сайта, и администрация не несет ответственности за их содержание. Просьба не заливать файлы, защищенные авторскими правами, а также файлы нелегального содержания!