+100


 

[Цитировать]

-Linkin Park - Concert for the Philippines--Год выпуска: 2014 г.
Страна: Los Angeles, California
Жанр: Alternative Rock
Продолжительность: 00:29:43-Качество видео: HDTV
Контейнер: TS
Стандарт разрешения: 1080i
Видео кодек: MPEG2
Аудио кодек: AC3
Видео: 1920*1080, ~15.1 Мбит/с, 29.970 кадр/с
Формат DVD: NTSC
Аудио: 384 Кбит/с, 6 каналов, 48 КГц-Описание: Концерт в поддержку сбора средств для оставшихся в живых после тайфуна Хайянь, который обрушился на Филиппины в ноябре 2013 года.-

Трэклист

01. One Step Closer (Ext. Outro)
Interview
02. Castle Of Glass (w/ Ann and Nancy Wilson)
Interview
03. What I've Done (w/ Mike Einziger)
04. In The End (w/ Mike Einziger)
05. Burn It Down
06. Bleed It Out (Ext. Intro; Ext. Bridge w/ Travis Barker + Rob Drum Solos; Ext. Outro)

Media Info

General
ID : 1 (0x1)
Complete name : E:\Клипы\Linkin Park\2014 - Concert for the Philippines\Music for Relief Presents Concert for the Philippines - Linkin Park.ts
Format : MPEG-TS
File size : 3.38 GiB
Duration : 29mn 43s
Overall bit rate mode : Variable
Overall bit rate : 16.3 Mbps
Video
ID : 6081 (0x17C1)
Menu ID : 1 (0x1)
Format : MPEG Video
Format version : Version 2
Format profile : Main@High
Format settings, BVOP : Yes
Format settings, Matrix : Custom
Format settings, GOP : Variable
Codec ID : 2
Duration : 29mn 43s
Bit rate mode : Variable
Bit rate : 15.1 Mbps
Maximum bit rate : 18.0 Mbps
Width : 1 920 pixels
Height : 1 080 pixels
Display aspect ratio : 16:9
Frame rate : 29.970 fps
Color space : YUV
Chroma subsampling : 4:2:0
Bit depth : 8 bits
Scan type : Interlaced
Scan order : Top Field First
Compression mode : Lossy
Bits/(Pixel*Frame) : 0.243
Time code of first frame : 00:00:00;00
Time code source : Group of pictures header
Stream size : 3.13 GiB (93%)
Audio
ID : 6082 (0x17C2)
Menu ID : 1 (0x1)
Format : AC-3
Format/Info : Audio Coding 3
Mode extension : CM (complete main)
Format settings, Endianness : Big
Codec ID : 129
Duration : 29mn 43s
Bit rate mode : Constant
Bit rate : 384 Kbps
Channel(s) : 6 channels
Channel positions : Front: L C R, Side: L R, LFE
Sampling rate : 48.0 KHz
Bit depth : 16 bits
Compression mode : Lossy
Stream size : 81.6 MiB (2%)
Language : English
Text #1
ID : 6081 (0x17C1)-CC1
Menu ID : 1 (0x1)
Format : EIA-608
Muxing mode : A/53 / DTVCC Transport
Muxing mode, more info : Muxed in Video #1
Duration : 29mn 43s
Bit rate mode : Constant
Stream size : 0.00 Byte (0%)
Text #2
ID : 6081 (0x17C1)-1
Menu ID : 1 (0x1)
Format : EIA-708
Muxing mode : A/53 / DTVCC Transport
Muxing mode, more info : Muxed in Video #1
Duration : 29mn 43s
Bit rate mode : Constant
Stream size : 0.00 Byte (0%)

Скриншоты

Доп. информация

В начале видео небольшое вступление с кадрами последствий от тайфуна.
Выступление группы начинается с 00:04:07.
После первой и второй песни вставлены короткие интервью с участниками группы.




Показать сообщения:    

Текущее время: 11-Дек 13:12

Часовой пояс: UTC + 11


Вы не можете начинать темы
Вы не можете отвечать на сообщения
Вы не можете редактировать свои сообщения
Вы не можете удалять свои сообщения
Вы не можете голосовать в опросах
Вы не можете прикреплять файлы к сообщениям
Вы не можете скачивать файлы

Сайт не предоставляет электронные версии произведений, а занимается лишь коллекционированием и каталогизацией ссылок, присылаемых и публикуемых на форуме нашими читателями. Если вы являетесь правообладателем какого-либо представленного материала и не желаете, чтобы ссылка на него находилась в нашем каталоге, свяжитесь с нами, и мы незамедлительно удалим ее. Файлы для обмена на трекере предоставлены пользователями сайта, и администрация не несет ответственности за их содержание. Просьба не заливать файлы, защищенные авторскими правами, а также файлы нелегального содержания!