+100


Топ за 24 часа
 
 

[Цитировать]

Венера в мехах / La Venus a la fourrure-
Год выпуска: 2013
Страна: Франция , Польша
Жанр: драма
Продолжительность: 01:35:45
Перевод: Дублированное [звук с TS]
Режиссер: Роман Полански
Сценарий: Дэвид Айвз, Роман Полански, Леопольд фон Захер-Мазох
Продюсер: Роберт Бенмусса, Ален Сард, Мариуш Лукомский
Оператор: Павел Эдельман
Композитор: Александр Депла
Художник: Брюно Вия, Филипп Кордом
Монтаж: Эрве Де Люс, Марго Мейньер
В ролях: Эмманюэль Сенье / Emmanuelle Seigner (Vanda), Матье Амальрик / Mathieu Amalric (Thomas)

Описание: Весь день Тома проводил прослушивания, выбирая актрису для пьесы по знаменитому роману Леопольда фон Захера-Мазоха «Венера в мехах». Режиссер в отчаянии, пока не появляется Ванда — настоящий сгусток энергии, разнузданная и развязная. Она воплощает собой все, что Тома ненавидит: вульгарна, взбалмошна и не остановится ни перед чем, чтобы получить роль. Вдруг все, что так ненавидит Тома, начинает ему нравиться — актриса отлично подготовилась к прослушиванию. Удивление сменяется влечением, а затем и одержимостью этой женщиной.
Зрители: Италия 1.18 млн , Франция 210.7 тыс. , Польша 78.5 тыс.
Премьера (мир): 25 мая 2013
Премьера (РФ): 15 мая 2014 «West»-- --Качество: HDRip
Формат: AVI
Видео кодек: XviD
Аудио кодеk: MP3
Видео: 720x304 (2.35:1), 23.976 fps, XviD, 1 901 Kbps
Аудио: Аудио #1: MP3, 128 Kbps, 44.1 KHz, 2 ch

Знаете ли Вы, что...

· Главная роль могла достаться Луи Гаррелю, но в конечном итоге он был заменен на Матье Амальрика.
· Роман Полански перенес место действия фильма из Нью-Йорка в Париж.

скриншоты

медиаинфо

General
Complete name : Venera.v.mehah.2013.Dt.HDRip.1400MB.avi
Format : AVI
Format/Info : Audio Video Interleave
File size : 1.36 GiB
Duration : 1h 35mn
Overall bit rate : 2 039 Kbps
Writing application : VirtualDubMod 1.5.10.2 (build 2540/release)
Writing library : VirtualDubMod build 2540/release
Video
ID : 0
Format : MPEG-4 Visual
Format profile : Advanced Simple@L5
Format settings, BVOP : Yes
Format settings, QPel : No
Format settings, GMC : No warppoints
Format settings, Matrix : Custom
Codec ID : XVID
Codec ID/Hint : XviD
Duration : 1h 35mn
Bit rate : 1 901 Kbps
Width : 720 pixels
Height : 304 pixels
Display aspect ratio : 2.35:1
Frame rate : 23.976 fps
Color space : YUV
Chroma subsampling : 4:2:0
Bit depth : 8 bits
Scan type : Progressive
Bits/(Pixel*Frame) : 0.362
Stream size : 1.27 GiB (93%)
Writing library : XviD 1.2.1 (UTC 2008-12-04)
Audio
ID : 1
Format : MPEG Audio
Format version : Version 1
Format profile : Layer 3
Codec ID : 55
Codec ID/Hint : MP3
Duration : 1h 35mn
Bit rate mode : Constant
Bit rate : 128 Kbps
Channel(s) : 2 channels
Sampling rate : 44.1 KHz
Stream size : 87.7 MiB (6%)
Alignment : Split accross interleaves
Interleave, duration : 42 ms (1.00 video frame)
Interleave, preload duration : 500 ms




Показать сообщения:    

Текущее время: 07-Дек 21:30

Часовой пояс: UTC + 11


Вы не можете начинать темы
Вы не можете отвечать на сообщения
Вы не можете редактировать свои сообщения
Вы не можете удалять свои сообщения
Вы не можете голосовать в опросах
Вы не можете прикреплять файлы к сообщениям
Вы не можете скачивать файлы

Сайт не предоставляет электронные версии произведений, а занимается лишь коллекционированием и каталогизацией ссылок, присылаемых и публикуемых на форуме нашими читателями. Если вы являетесь правообладателем какого-либо представленного материала и не желаете, чтобы ссылка на него находилась в нашем каталоге, свяжитесь с нами, и мы незамедлительно удалим ее. Файлы для обмена на трекере предоставлены пользователями сайта, и администрация не несет ответственности за их содержание. Просьба не заливать файлы, защищенные авторскими правами, а также файлы нелегального содержания!