+100


Топ за 24 часа
 
 

[Цитировать]

Теория заговора / Zulu-
Название: Теория заговора
Оригинальное название: Zulu
Год выхода: 2013
Жанр: триллер, драма, криминал
Выпущено: Франция, ЮАР
Продолжительность: 01:21:15
Озвучивание: Любительское (одногоосое) [datynet]-Режиссер: Жером Салль
В ролях: Орландо Блум, Форест Уитакер, Таня ван Граан, Наташа Лоринг, Роксанна Прентис, Патрик Листер, Свен Рюйгрок, Келси Иган, Конрад Кемп, Лизе Слэббер-В Южной Африке, где еще царит апартеид, два полицейских разыскивают убийцу молодой девушки в негритянских гетто и в фешенебельных районах Кейптауна. Это расследование перевернет жизнь героев и заставит их бороться со своими внутренними страхами.-
Качество: HDRip
Формат: AVI
Видео: XviD, 1598 Кбит/с, 740x300, XviD
Звук: MP3, 2 ch, 192 Кбит/с

Скриншоты

MI

Общее
Полное имя : D:\Zulu.2013.avi
Формат : AVI
Формат/Информация : Audio Video Interleave
Размер файла : 1,34 Гбайт
Продолжительность : 1 ч. 46 м.
Общий поток : 1799 Кбит/сек
Название фильма : RARBG.COM - Zulu.2013.BRRip.XviD.AC3-RARBG
Библиотека кодирования : VirtualDub build 34753/release
Примечание : RARBG.COM - Zulu.2013.BRRip.XviD.AC3-RARBG
Видео
Идентификатор : 0
Формат : MPEG-4 Visual
Профиль формата : Simple@L5
Параметр BVOP формата : Нет
Параметр QPel формата : Нет
Параметр GMC формата : Без точки перехода
Параметр матрицы формата : Default (H.263)
Идентификатор кодека : XVID
Идентификатор кодека/Подсказка : XviD
Продолжительность : 1 ч. 46 м.
Битрейт : 1598 Кбит/сек
Ширина : 740 пикселей
Высота : 300 пикселей
Соотношение сторон : 2,40:1
Частота кадров : 24,000 кадра/сек
Цветовое пространство : YUV
Субдискретизация насыщенности : 4:2:0
Битовая глубина : 8 бит
Тип развёртки : Прогрессивная
Метод сжатия : С потерями
Бит/(Пиксели*Кадры) : 0.300
Размер потока : 1,19 Гбайт (89%)
Библиотека кодирования : Lavc55.55.104
Аудио
Идентификатор : 1
Формат : MPEG Audio
Версия формата : Version 1
Профиль формата : Layer 3
Идентификатор кодека : 55
Идентификатор кодека/Подсказка : MP3
Продолжительность : 1 ч. 46 м.
Вид битрейта : Постоянный
Битрейт : 192 Кбит/сек
Каналы : 2 канала
Частота : 44,1 КГц
Метод сжатия : С потерями
Размер потока : 147 Мбайт (11%)
Выравнивание : Разделение по промежуткам
Продолжительность промежутка : 42 мс. (1,00 видеокадр)
Время предзагрузки промежутка : 500 мс.
-




Показать сообщения:    

Текущее время: 03-Дек 17:46

Часовой пояс: UTC + 11


Вы не можете начинать темы
Вы не можете отвечать на сообщения
Вы не можете редактировать свои сообщения
Вы не можете удалять свои сообщения
Вы не можете голосовать в опросах
Вы не можете прикреплять файлы к сообщениям
Вы не можете скачивать файлы

Сайт не предоставляет электронные версии произведений, а занимается лишь коллекционированием и каталогизацией ссылок, присылаемых и публикуемых на форуме нашими читателями. Если вы являетесь правообладателем какого-либо представленного материала и не желаете, чтобы ссылка на него находилась в нашем каталоге, свяжитесь с нами, и мы незамедлительно удалим ее. Файлы для обмена на трекере предоставлены пользователями сайта, и администрация не несет ответственности за их содержание. Просьба не заливать файлы, защищенные авторскими правами, а также файлы нелегального содержания!