+100


Топ за 24 часа
 
 

[Цитировать]

-UralSOFT | Видео курс по созданию сборки Windows 7 [2012] PCRec-Автор (режиссер): UralSOFT
Название: Видео курс по созданию сборки Windows 7
Год выпуска: 2012
Жанр: Компьютеры и программы
Язык: Русский
Качество видео: PCRec
Продолжительность: ~02:30:00
Видеокодек: AVI
Битрейт видео: 264-1295 Кбит/сек, 15 FPS
Размер кадра: 800x600
Аудиокодек: PCM
Битрейт аудио: 352,8 Кбит/сек (CBR), 22,05 КГц
Описание:
Данный видео курс содержит материалы для самостоятельного создания сборки Windows7 как для 32-ой так и для 64-ой платформ. Вся информация изложена на общедоступном языке т.е. - "человеческом". Вам не нужно обладать никакими навыками программирования! Все что требуется-это внимательно просмотреть видео урок, а затем повторить! Так же данный курс будет интересен для ознакомления пользователям которые используют чьи либо сборки! В процессе обучения вы так же познакомитесь с рядом сторонних программ необходимых для создания сборок.
К видеокурсу прилагаются дополнительные материалы!-

Скриншоты

MediaInfo:

Полное имя 00. Введение.avi
Формат : AVI
Формат/Информация : Audio Video Interleave
Размер файла : 53,3 Мбайт
Продолжительность : 8 м. 28 с.
Общий поток : 880 Кбит/сек
Видео
Идентификатор : 0
Формат : TechSmith
Идентификатор кодека : tscc
Идентификатор кодека/Информация : TechSmith Screen Capture
Продолжительность : 8 м. 28 с.
Битрейт : 521 Кбит/сек
Ширина : 800 пикселей
Высота : 600 пикселей
Соотношение сторон : 4:3
Частота кадров : 15,000 кадров/сек
Бит/(Пиксели*Кадры) : 0.072
Размер потока : 31,6 Мбайт (59%)
Аудио
Идентификатор : 1
Формат : PCM
Параметр Endianness формата : Little
Параметр Sign формата : Signed
Идентификатор кодека : 1
Продолжительность : 8 м. 28 с.
Вид битрейта : Постоянный
Битрейт : 352,8 Кбит/сек
Каналы : 1 канал
Частота : 22,05 КГц
Битовая глубина : 16 бит
Размер потока : 21,4 Мбайт (40%)
Продолжительность промежутка : 999 мс. (14,98 видеокадров)
Время предзагрузки промежутка : 749 мс.
Общее
Полное имя : 01. Урок.avi
Формат : AVI
Формат/Информация : Audio Video Interleave
Размер файла : 48,6 Мбайт
Продолжительность : 10 м.
Общий поток : 623 Кбит/сек
Видео
Идентификатор : 0
Формат : TechSmith
Идентификатор кодека : tscc
Идентификатор кодека/Информация : TechSmith Screen Capture
Продолжительность : 10 м.
Битрейт : 264 Кбит/сек
Ширина : 800 пикселей
Высота : 600 пикселей
Соотношение сторон : 4:3
Частота кадров : 15,000 кадров/сек
Бит/(Пиксели*Кадры) : 0.037
Размер потока : 20,6 Мбайт (42%)
Аудио
Идентификатор : 1
Формат : PCM
Параметр Endianness формата : Little
Параметр Sign формата : Signed
Идентификатор кодека : 1
Продолжительность : 10 м.
Вид битрейта : Постоянный
Битрейт : 352,8 Кбит/сек
Каналы : 1 канал
Частота : 22,05 КГц
Битовая глубина : 16 бит
Размер потока : 27,5 Мбайт (57%)
Продолжительность промежутка : 999 мс. (14,99 видеокадров)
Время предзагрузки промежутка : 749 мс.
Общее
Полное имя : 02. Урок.avi
Формат : AVI
Формат/Информация : Audio Video Interleave
Размер файла : 106 Мбайт
Продолжительность : 12 м.
Общий поток : 1148 Кбит/сек
Видео
Идентификатор : 0
Формат : TechSmith
Идентификатор кодека : tscc
Идентификатор кодека/Информация : TechSmith Screen Capture
Продолжительность : 12 м.
Битрейт : 790 Кбит/сек
Ширина : 800 пикселей
Высота : 600 пикселей
Соотношение сторон : 4:3
Частота кадров : 15,000 кадров/сек
Бит/(Пиксели*Кадры) : 0.110
Размер потока : 72,9 Мбайт (69%)
Аудио
Идентификатор : 1
Формат : PCM
Параметр Endianness формата : Little
Параметр Sign формата : Signed
Идентификатор кодека : 1
Продолжительность : 12 м.
Вид битрейта : Постоянный
Битрейт : 352,8 Кбит/сек
Каналы : 1 канал
Частота : 22,05 КГц
Битовая глубина : 16 бит
Размер потока : 32,6 Мбайт (31%)
Продолжительность промежутка : 999 мс. (14,99 видеокадров)
Время предзагрузки промежутка : 749 мс.
Общее
Полное имя : 03. Урок.avi
Формат : AVI
Формат/Информация : Audio Video Interleave
Размер файла : 98,9 Мбайт
Продолжительность : 13 м.
Общий поток : 995 Кбит/сек
Видео
Идентификатор : 0
Формат : TechSmith
Идентификатор кодека : tscc
Идентификатор кодека/Информация : TechSmith Screen Capture
Продолжительность : 13 м.
Битрейт : 637 Кбит/сек
Ширина : 800 пикселей
Высота : 600 пикселей
Соотношение сторон : 4:3
Частота кадров : 15,000 кадров/сек
Бит/(Пиксели*Кадры) : 0.089
Размер потока : 63,3 Мбайт (64%)
Аудио
Идентификатор : 1
Формат : PCM
Параметр Endianness формата : Little
Параметр Sign формата : Signed
Идентификатор кодека : 1
Продолжительность : 13 м.
Вид битрейта : Постоянный
Битрейт : 352,8 Кбит/сек
Каналы : 1 канал
Частота : 22,05 КГц
Битовая глубина : 16 бит
Размер потока : 35,0 Мбайт (35%)
Продолжительность промежутка : 999 мс. (14,99 видеокадров)
Время предзагрузки промежутка : 749 мс.
Общее
Полное имя : 04. Урок.avi
Формат : AVI
Формат/Информация : Audio Video Interleave
Размер файла : 86,2 Мбайт
Продолжительность : 11 м.
Общий поток : 1052 Кбит/сек
Видео
Идентификатор : 0
Формат : TechSmith
Идентификатор кодека : tscc
Идентификатор кодека/Информация : TechSmith Screen Capture
Продолжительность : 11 м.
Битрейт : 693 Кбит/сек
Ширина : 800 пикселей
Высота : 600 пикселей
Соотношение сторон : 4:3
Частота кадров : 15,000 кадров/сек
Бит/(Пиксели*Кадры) : 0.096
Размер потока : 56,8 Мбайт (66%)
Аудио
Идентификатор : 1
Формат : PCM
Параметр Endianness формата : Little
Параметр Sign формата : Signed
Идентификатор кодека : 1
Продолжительность : 11 м.
Вид битрейта : Постоянный
Битрейт : 352,8 Кбит/сек
Каналы : 1 канал
Частота : 22,05 КГц
Битовая глубина : 16 бит
Размер потока : 28,9 Мбайт (34%)
Продолжительность промежутка : 999 мс. (14,99 видеокадров)
Время предзагрузки промежутка : 749 мс.
Общее
Полное имя : 05. Урок.avi
Формат : AVI
Формат/Информация : Audio Video Interleave
Размер файла : 145 Мбайт
Продолжительность : 16 м.
Общий поток : 1262 Кбит/сек
Видео
Идентификатор : 0
Формат : TechSmith
Идентификатор кодека : tscc
Идентификатор кодека/Информация : TechSmith Screen Capture
Продолжительность : 16 м.
Битрейт : 904 Кбит/сек
Ширина : 800 пикселей
Высота : 600 пикселей
Соотношение сторон : 4:3
Частота кадров : 15,000 кадров/сек
Бит/(Пиксели*Кадры) : 0.126
Размер потока : 104 Мбайт (72%)
Аудио
Идентификатор : 1
Формат : PCM
Параметр Endianness формата : Little
Параметр Sign формата : Signed
Идентификатор кодека : 1
Продолжительность : 16 м.
Вид битрейта : Постоянный
Битрейт : 352,8 Кбит/сек
Каналы : 1 канал
Частота : 22,05 КГц
Битовая глубина : 16 бит
Размер потока : 40,6 Мбайт (28%)
Продолжительность промежутка : 1000 мс. (15,00 видеокадров)
Время предзагрузки промежутка : 749 мс.
Общее
Полное имя : 06. Урок.avi
Формат : AVI
Формат/Информация : Audio Video Interleave
Размер файла : 114 Мбайт
Продолжительность : 15 м.
Общий поток : 1060 Кбит/сек
Видео
Идентификатор : 0
Формат : TechSmith
Идентификатор кодека : tscc
Идентификатор кодека/Информация : TechSmith Screen Capture
Продолжительность : 15 м.
Битрейт : 702 Кбит/сек
Ширина : 800 пикселей
Высота : 600 пикселей
Соотношение сторон : 4:3
Частота кадров : 15,000 кадров/сек
Бит/(Пиксели*Кадры) : 0.098
Размер потока : 75,7 Мбайт (66%)
Аудио
Идентификатор : 1
Формат : PCM
Параметр Endianness формата : Little
Параметр Sign формата : Signed
Идентификатор кодека : 1
Продолжительность : 15 м.
Вид битрейта : Постоянный
Битрейт : 352,8 Кбит/сек
Каналы : 1 канал
Частота : 22,05 КГц
Битовая глубина : 16 бит
Размер потока : 38,0 Мбайт (33%)
Продолжительность промежутка : 999 мс. (14,98 видеокадров)
Время предзагрузки промежутка : 749 мс.
Общее
Полное имя : 07. Урок.avi
Формат : AVI
Формат/Информация : Audio Video Interleave
Размер файла : 72,8 Мбайт
Продолжительность : 9 м. 5 с.
Общий поток : 1121 Кбит/сек
Видео
Идентификатор : 0
Формат : TechSmith
Идентификатор кодека : tscc
Идентификатор кодека/Информация : TechSmith Screen Capture
Продолжительность : 9 м. 5 с.
Битрейт : 762 Кбит/сек
Ширина : 800 пикселей
Высота : 600 пикселей
Соотношение сторон : 4:3
Частота кадров : 15,000 кадров/сек
Бит/(Пиксели*Кадры) : 0.106
Размер потока : 49,5 Мбайт (68%)
Аудио
Идентификатор : 1
Формат : PCM
Параметр Endianness формата : Little
Параметр Sign формата : Signed
Идентификатор кодека : 1
Продолжительность : 9 м. 5 с.
Вид битрейта : Постоянный
Битрейт : 352,8 Кбит/сек
Каналы : 1 канал
Частота : 22,05 КГц
Битовая глубина : 16 бит
Размер потока : 22,9 Мбайт (31%)
Продолжительность промежутка : 998 мс. (14,97 видеокадров)
Время предзагрузки промежутка : 749 мс.
Общее
Полное имя : 08. Урок.avi
Формат : AVI
Формат/Информация : Audio Video Interleave
Размер файла : 183 Мбайт
Продолжительность : 16 м.
Общий поток : 1601 Кбит/сек
Видео
Идентификатор : 0
Формат : TechSmith
Идентификатор кодека : tscc
Идентификатор кодека/Информация : TechSmith Screen Capture
Продолжительность : 16 м.
Битрейт : 1243 Кбит/сек
Ширина : 800 пикселей
Высота : 600 пикселей
Соотношение сторон : 4:3
Частота кадров : 15,000 кадров/сек
Бит/(Пиксели*Кадры) : 0.173
Размер потока : 142 Мбайт (78%)
Аудио
Идентификатор : 1
Формат : PCM
Параметр Endianness формата : Little
Параметр Sign формата : Signed
Идентификатор кодека : 1
Продолжительность : 16 м.
Вид битрейта : Постоянный
Битрейт : 352,8 Кбит/сек
Каналы : 1 канал
Частота : 22,05 КГц
Битовая глубина : 16 бит
Размер потока : 40,4 Мбайт (22%)
Продолжительность промежутка : 1000 мс. (14,99 видеокадров)
Время предзагрузки промежутка : 749 мс.
Общее
Полное имя : 09. Урок.avi
Формат : AVI
Формат/Информация : Audio Video Interleave
Размер файла : 129 Мбайт
Продолжительность : 12 м.
Общий поток : 1399 Кбит/сек
Видео
Идентификатор : 0
Формат : TechSmith
Идентификатор кодека : tscc
Идентификатор кодека/Информация : TechSmith Screen Capture
Продолжительность : 12 м.
Битрейт : 1041 Кбит/сек
Ширина : 800 пикселей
Высота : 600 пикселей
Соотношение сторон : 4:3
Частота кадров : 15,000 кадров/сек
Бит/(Пиксели*Кадры) : 0.145
Размер потока : 96,2 Мбайт (74%)
Аудио
Идентификатор : 1
Формат : PCM
Параметр Endianness формата : Little
Параметр Sign формата : Signed
Идентификатор кодека : 1
Продолжительность : 12 м.
Вид битрейта : Постоянный
Битрейт : 352,8 Кбит/сек
Каналы : 1 канал
Частота : 22,05 КГц
Битовая глубина : 16 бит
Размер потока : 32,6 Мбайт (25%)
Продолжительность промежутка : 999 мс. (14,99 видеокадров)
Время предзагрузки промежутка : 749 мс.
Общее
Полное имя : 11. Урок.avi
Формат : AVI
Формат/Информация : Audio Video Interleave
Размер файла : 164 Мбайт
Продолжительность : 14 м.
Общий поток : 1537 Кбит/сек
Видео
Идентификатор : 0
Формат : TechSmith
Идентификатор кодека : tscc
Идентификатор кодека/Информация : TechSmith Screen Capture
Продолжительность : 14 м.
Битрейт : 1179 Кбит/сек
Ширина : 800 пикселей
Высота : 600 пикселей
Соотношение сторон : 4:3
Частота кадров : 15,000 кадров/сек
Бит/(Пиксели*Кадры) : 0.164
Размер потока : 125 Мбайт (77%)
Аудио
Идентификатор : 1
Формат : PCM
Параметр Endianness формата : Little
Параметр Sign формата : Signed
Идентификатор кодека : 1
Продолжительность : 14 м.
Вид битрейта : Постоянный
Битрейт : 352,8 Кбит/сек
Каналы : 1 канал
Частота : 22,05 КГц
Битовая глубина : 16 бит
Размер потока : 37,6 Мбайт (23%)
Продолжительность промежутка : 999 мс. (14,98 видеокадров)
Время предзагрузки промежутка : 749 мс.
Общее
Полное имя : 12. Итоги.avi
Формат : AVI
Формат/Информация : Audio Video Interleave
Размер файла : 72,4 Мбайт
Продолжительность : 6 м. 6 с.
Общий поток : 1655 Кбит/сек
Видео
Идентификатор : 0
Формат : TechSmith
Идентификатор кодека : tscc
Идентификатор кодека/Информация : TechSmith Screen Capture
Продолжительность : 6 м. 6 с.
Битрейт : 1295 Кбит/сек
Ширина : 800 пикселей
Высота : 600 пикселей
Соотношение сторон : 4:3
Частота кадров : 15,000 кадров/сек
Бит/(Пиксели*Кадры) : 0.180
Размер потока : 56,7 Мбайт (78%)
Аудио
Идентификатор : 1
Формат : PCM
Параметр Endianness формата : Little
Параметр Sign формата : Signed
Идентификатор кодека : 1
Продолжительность : 6 м. 6 с.
Вид битрейта : Постоянный
Битрейт : 352,8 Кбит/сек
Каналы : 1 канал
Частота : 22,05 КГц
Битовая глубина : 16 бит
Размер потока : 15,4 Мбайт (21%)
Продолжительность промежутка : 997 мс. (14,96 видеокадров)
Время предзагрузки промежутка : 749 мс.




Показать сообщения:    

Текущее время: 07-Дек 21:33

Часовой пояс: UTC + 11


Вы не можете начинать темы
Вы не можете отвечать на сообщения
Вы не можете редактировать свои сообщения
Вы не можете удалять свои сообщения
Вы не можете голосовать в опросах
Вы не можете прикреплять файлы к сообщениям
Вы не можете скачивать файлы

Сайт не предоставляет электронные версии произведений, а занимается лишь коллекционированием и каталогизацией ссылок, присылаемых и публикуемых на форуме нашими читателями. Если вы являетесь правообладателем какого-либо представленного материала и не желаете, чтобы ссылка на него находилась в нашем каталоге, свяжитесь с нами, и мы незамедлительно удалим ее. Файлы для обмена на трекере предоставлены пользователями сайта, и администрация не несет ответственности за их содержание. Просьба не заливать файлы, защищенные авторскими правами, а также файлы нелегального содержания!