+100


Топ за 24 часа
 
 

[Цитировать]

Академия вампиров / Vampire Academy
«Blood is family. Blood is pain. And blood is death»
Год выпуска: 2014
Страна: США
Жанр: ужасы, фэнтези, боевик, комедия, детектив
Продолжительность: 01:44:22
Перевод: Профессиональный (многоголосый закадровый)[BaibaKo]
Режиссер: Марк Уотерс
В ролях: Зои Дойч (Zoey Deutch), Люси Фрай (Lucy Fry), Данила Козловский, Доминик Шервуд (Dominic Sherwood), Сара Хайланд (Sarah Hyland), Гэбриел Бирн (Gabriel Byrne), Сами Гэйл (Sami Gayle), Ольга Куриленко
Описание: Мало кому известно, что в Америке, в самом сердце Монтаны, имеется настоящая Академия, где вампиры обучаются высокому искусству магии. И почти никто не знает, что в мире идут кровавые вампирские войны и расе мороев противостоит жестокое племя стригоев, вампиров, переступивших черту закона и не гнушающихся убийством. Даже стены Академии, святая святых науки, не слишком надежная защита от происков темных сил. Юная моройская принцесса Лисса и Роза, ее подруга и верный страж, однажды убеждаются в этом, оказавшись в эпицентре грозных событий.
Сборы в США: $7 791 979
Сборы в мире: + $7 600 000 = $15 391 979
Сборы в России: $1 818 457
Рейтинг MPAA:

Качество: HDRip
Формат: AVI
Видео кодек: XviD
Аудио кодек: AC3
Видео: 720x304 (2.35:1), 23.976 fps, XviD, 1 970 Kbps
Аудио #1: Rus AC3, 384 Kbps, 48.0 KHz, 6 ch
Аудио #2: Eng AC3, 448 Kbps, 48.0 KHz, 6 ch

Знаете ли Вы, что...

...
> Фильм снят по мотивам первой книги Райчел Мид из серии Академия вампиров
...
> Пси-собаки первоначально были сняты с использованием обученных животных, но режиссер Марк Уотерс остался недоволен тем, как они выглядели. В результате их заменили моделями, созданными при помощи компьютерной графики.
...
> Прослушивание Сары Хайланд на роль в этом фильме проходило через Skype.
...
> Доминик Шервуд был последним актером, утвержденным на роль в фильме. Его кандидатура была одобрена за несколько дней до начала съемок.

MediaInfo

General
Complete name : Akademiya.Vampirov.2014.P.HDRip.avi
Format : AVI
Format/Info : Audio Video Interleave
Format profile : OpenDML
File size : 2.06 GiB
Duration : 1h 44mn
Overall bit rate : 2 820 Kbps
Writing application : VirtualDubMod 1.5.10.2 (build 2540/release)
Writing library : VirtualDubMod build 2540/release
Video
ID : 0
Format : MPEG-4 Visual
Format profile : Advanced Simple@L5
Format settings, BVOP : Yes
Format settings, QPel : No
Format settings, GMC : No warppoints
Format settings, Matrix : Custom
Codec ID : XVID
Codec ID/Hint : XviD
Duration : 1h 44mn
Bit rate : 1 970 Kbps
Width : 720 pixels
Height : 304 pixels
Display aspect ratio : 2.35:1
Frame rate : 23.976 fps
Color space : YUV
Chroma subsampling : 4:2:0
Bit depth : 8 bits
Scan type : Progressive
Bits/(Pixel*Frame) : 0.375
Stream size : 1.44 GiB (70%)
Writing library : XviD 1.2.1 (UTC 2008-12-04)
Audio #1
ID : 1
Format : AC-3
Format/Info : Audio Coding 3
Mode extension : CM (complete main)
Codec ID : 2000
Duration : 1h 44mn
Bit rate mode : Constant
Bit rate : 384 Kbps
Channel(s) : 6 channels
Channel positions : Front: L C R, Side: L R, LFE
Sampling rate : 48.0 KHz
Bit depth : 16 bits
Stream size : 287 MiB (14%)
Alignment : Split accross interleaves
Interleave, duration : 42 ms (1.00 video frame)
Interleave, preload duration : 500 ms
Audio #2
ID : 2
Format : AC-3
Format/Info : Audio Coding 3
Mode extension : CM (complete main)
Codec ID : 2000
Duration : 1h 44mn
Bit rate mode : Constant
Bit rate : 448 Kbps
Channel(s) : 6 channels
Channel positions : Front: L C R, Side: L R, LFE
Sampling rate : 48.0 KHz
Bit depth : 16 bits
Stream size : 334 MiB (16%)
Alignment : Split accross interleaves
Interleave, duration : 42 ms (1.00 video frame)
Interleave, preload duration : 500 ms

Скриншоты





Показать сообщения:    

Текущее время: 07-Дек 06:54

Часовой пояс: UTC + 11


Вы не можете начинать темы
Вы не можете отвечать на сообщения
Вы не можете редактировать свои сообщения
Вы не можете удалять свои сообщения
Вы не можете голосовать в опросах
Вы не можете прикреплять файлы к сообщениям
Вы не можете скачивать файлы

Сайт не предоставляет электронные версии произведений, а занимается лишь коллекционированием и каталогизацией ссылок, присылаемых и публикуемых на форуме нашими читателями. Если вы являетесь правообладателем какого-либо представленного материала и не желаете, чтобы ссылка на него находилась в нашем каталоге, свяжитесь с нами, и мы незамедлительно удалим ее. Файлы для обмена на трекере предоставлены пользователями сайта, и администрация не несет ответственности за их содержание. Просьба не заливать файлы, защищенные авторскими правами, а также файлы нелегального содержания!